новый адрес пиратбит piratbit
Мега распродажа FORZA HORIZON 4 ULTIMATE+ВСЕ DLC+ОНЛАЙН всего за 499р. 349 руб. (супер цена). Внимание количество ограничено!!!

iTunes

1+1

iTunes

мы

iTunes

1

iTunes

Чернобыль

iTunes

Ральф против интернета

Лицензия

ПШазам

Лицензия

Игра престолов

Лицензия

30
pack

ВАЖНО

!!Акция!!

Alien_RageХит недели

RePack

Resident Evil 21

ИГРА 18+

pack

RePack

Metro:Exodus

!!Акция!!

Alien_Rage

RePack

fifa19

RePack

Assassins Creed: Odyssey

RePack

NEED FOR SPEED™ PAYBACK

3 сезон

9 сезон

Бесстыжие 9 сезон

Все сериалы

все сериалы на PB.wtf

RePack

FAR CRY 5
Ребята, катастрофически не хватает 1900р. для оплаты серверов за Октябрь (всвязи с блокировками трафик упал в 3 раза), 1-2р., выручайте.
  

Белая акация (Георгий Натансон) [1957, СССР, комедия, мюзикл, DVDRip-AVC от AVP Studio] pb.wtf

Белая акация через торрент pb.wtf

Размер: 1.46 GB | Добавлен: 2 года 8 мес. назад | Торрент скачан:19 раз
Скачать  

05-03-2017 09:34 Белая акация Скачать торрент  

Белая акация
Страна: СССР
Производство: Молдова-филм по заказу Центральной студии телевидения

Жанр: комедия, мюзикл
Год выпуска: 1957
Продолжительность: 01:25:02

Перевод: Не требуется
Cубтитры: нет
Оригинальная аудиодорожка: русский

Режиссер: Георгий Натансон

В ролях:
Идалия Иванова, Александр Стародуб, Евгения Дембская, Михаил Водяной, Николай Кочкин, Валентина Франчук, Муза Крепкогорская, Михаил Дашевский, Шева Фингерова, Олег Шаповалов, Борис Никитин, А. Латров, Виктор Алоин, Н. Сивченко...
Об актёрах подробней

Описание:
По одноименной оперетте И. Дунаевского.
Фильм снят по спектаклю Одесского театра музыкальной комедии (главный режиссер театра и постановщик спектакля - И. Гриншпун).
Китобойная флотилия уходит в далёкое плавание на промысел, а дома моряков всегда ждут родные, любимые, друзья. Вот и теперь они провожают китобоев. Капитан флотилии, красавец Костя Куприянов, оставляет на берегу невесту Ларису, девицу довольно эффектную внешне, но пустую, хитрую и пошлую по существу. У неё есть другой вздыхатель – Яшка-Буксир (Михаил Водяной), Яшка-доставала, агент по снабжению дефицитным барахлом, обаятельный одесский жулик. А по Косте тайно вздыхает совсем молоденькая девчонка, которую до сих пор и взрослой то не считали, «морская дочка» Тоня Чумакова. Вот она по-настоящему любит героя-моряка, любит настолько бескорыстно и глубоко, что решается на святой обман – посылает Косте на флагманский корабль, в беснующийся от шторма океан радиограмму от имени Ларисы и все свои чувства вкладывает в слова любви, подписывая их чужим именем. Ну а Костя, узнав, кто был истинным автором радиограммы, которая так взволновала его, конечно, сумел сделать правильный выбор, ко всеобщему удовольствию.

Источник: DVD5 R5
Качество видео: DVDRip-AVC
Формат видео: MKV

Видео: 720->768x576 (4:3), 25 fps, H264 ~ 2255 kbps avg, 0.217 bit/pixel
Аудио: 48 kHz, Dolby Digital AC3 2.0, 192 kbps

Раздача от:
Общее
Полное имя : Belaya.akaciya.1957.DVDRip-AVC_[New-team]_by_AVP_Studio.mkv
Формат : Matroska
Версия формата : Version 2
Размер файла : 1,46 Гбайт
Продолжительность : 1 ч. 25 м.
Общий поток : 2449 Кбит/сек
Дата кодирования : UTC 2017-03-03 17:27:20
Программа кодирования : mkvmerge v6.1.0 ('Old Devil') built on Mar 4 2013 09:10:42
Библиотека кодирования : libebml v1.3.0 + libmatroska v1.4.0

Видео
Идентификатор : 1
Формат : AVC
Формат/Информация : Advanced Video Codec
Профиль формата : High@L4.1
Параметр CABAC формата : Да
Параметр ReFrames формата : 10 кадров
Идентификатор кодека : V_MPEG4/ISO/AVC
Продолжительность : 1 ч. 25 м.
Битрейт : 2255 Кбит/сек
Ширина : 720 пикселей
Высота : 576 пикселей
Соотношение сторон : 4:3
Режим частоты кадров : Постоянный
Частота кадров : 25,000 кадров/сек
Стандарт вещания : PAL
Цветовое пространство : YUV
Субдискретизация насыщенности : 4:2:0
Битовая глубина : 8 бит
Тип развёртки : Прогрессивная
Бит/(Пиксели*Кадры) : 0.217
Размер потока : 1,32 Гбайт (90%)
Библиотека кодирования : x264 core 148 r2597 e86f3a1
Настройки программы : cabac=1 / ref=10 / deblock=1:-2:-1 / analyse=0x3:0x113 / me=umh / subme=10 / psy=1 / psy_rd=1.00:0.00 / mixed_ref=1 / me_range=32 / chroma_me=1 / trellis=2 / 8x8dct=1 / cqm=0 / deadzone=21,11 / fast_pskip=1 / chroma_qp_offset=-2 / threads=6 / lookahead_threads=1 / sliced_threads=0 / nr=0 / decimate=0 / interlaced=0 / bluray_compat=0 / constrained_intra=0 / bframes=8 / b_pyramid=2 / b_adapt=2 / b_bias=0 / direct=3 / weightb=1 / open_gop=0 / weightp=2 / keyint=250 / keyint_min=25 / scenecut=40 / intra_refresh=0 / rc=2pass / mbtree=0 / bitrate=2255 / ratetol=1.0 / qcomp=0.60 / qpmin=0 / qpmax=69 / qpstep=4 / cplxblur=20.0 / qblur=0.5 / ip_ratio=1.40 / pb_ratio=1.30 / aq=1:1.00
Default : Да
Forced : Нет

Аудио
Идентификатор : 2
Формат : AC-3
Формат/Информация : Audio Coding 3
Расширение режима : CM (complete main)
Параметр Endianness формата : Big
Идентификатор кодека : A_AC3
Продолжительность : 1 ч. 25 м.
Вид битрейта : Постоянный
Битрейт : 192 Кбит/сек
Каналы : 2 канала
Расположение каналов : Front: L R
Частота : 48,0 КГц
Частота кадров : 31,250 кадров/сек (1536 spf)
Битовая глубина : 16 бит
Метод сжатия : С потерями
Размер потока : 117 Мбайт (8%)
Default : Да
Forced : Нет
pb.wtf



Скачать Белая акация через торрент http://s019.radikal.ru/i644/1703/35/b53464253c0c.png Скачать фильм Белая акация через торрент бесплантно в хорошем качестве Описание:По одноименной оперетте И. Дунаевского.Фильм снят по спектаклю Одесского театра музыкальной комедии (главный режиссер театра и ... 5 10 1
Info! Золотая раздача, скачанное не засчитывается.
Торрент: Зарегистрирован [2017-03-05 09:34] · скачан: 19 раз
Статус: √ проверено
Размер: 1.46 GB
Как cкачать? Как скачать Белая акация через торрент | qTorrent

% Раздел Тема Автор DL S | L
Кино СССР [ 746 MB ] Белая акация [1957 СССР мюзикл DVDRip от AVP Studio] AVP Studio Скачать
1 | 0
Кино СССР [ 1.36 GB ] Белая акация [1957 СССР мюзикл DVDRip от AVP Studio] AVP Studio Скачать
1 | 0


>> Регистрируемся здесь <<






Отзывы и комментарии о схеме читаем и пишем здесь: ---> Отзывы и комментарии о схеме

Новые благодарочки в телеграм довольных пользователей:
скриншот   скриншот   скриншот   скриншот   скриншот
    Дорогой пользователь! Огромная просьба, поблагодарите релизера, оцените раздачу и оставьте свои комментарий, если Вы скачали Белая акация через торрент бесплатно! Внесите свою лепту в развитие PiratBit!
    Комментировать посты могут только пользователи прошедшие не сложную регистрацию
    Показать сообщения:    

    Белая акация через торрент
    Скачать бесплатно Белая акация
    Белая акация скачать торрент
    Белая акация смотреть онлайн
    Cкачать фильм Белая акация бесплатно
    Белая акация скачать торрент в хорошем качестве
    Белая акация смотреть онлайн бесплатно в хорошем качестве


    Вы не можете начинать темы
    Вы не можете отвечать на сообщения
    Вы не можете редактировать свои сообщения
    Вы не можете удалять свои сообщения
    Вы не можете голосовать в опросах
    Вы не можете прикреплять файлы к сообщениям
    Вы можете скачивать файлы