2 сезон

iTunes

1 сезон

1

iTunes

iTunes

iTunes

1 сезон

RePack

30

ИГРА 18+

pack

ВАЖНО

!!Акция!!

Alien_RageХит недели

RePack

MK11
pack

Забери бонус

RePack

jed

!!Акция!!

Alien_Rage

RePack

fifa19

RePack

Assassins Creed: Odyssey

RePack

NEED FOR SPEED™ PAYBACK

4 сезон

9 сезон

Бесстыжие 9 сезон

Все сериалы

все сериалы на PB.wtf

RePack

FAR CRY 5
  

Уличный кот по кличке Боб / A Street Cat Named Bob (Роджер Споттисвуд) [2016, драма, комедия, семейный, биография, BDRip 720p] MVO [Лицензия BD CEE] pb.wtf

Уличный кот по кличке Боб через торрент pb.wtf

Размер: 4.59 GB | Добавлен: 3 года 7 мес. назад | Торрент скачан:151 раз
Скачать  

05-03-2017 12:22 Уличный кот по кличке Боб Скачать торрент  

Уличный кот по кличке Боб / A Street Cat Named Bob
Год выпуска: 2016
Страна: США
Жанр: драма, комедия, семейный, биография
Продолжительность: 01:42:48
Перевод: Профессиональный многоголосый - [Лицензия BD CEE]
Субтитры: Русские, английские

Режиссер: Роджер Споттисвуд

rating

В ролях:

Люк Тредэвэй, кот Боб, Рута Гедминтас, Джоанн Фроггатт, Энтони Хэд, Даррен Эванс, Тони Джайавардена, Адам Ричез, Льюэлла Гидеон, Лоррейн Эшборн

Описание:

Рассказ о том, как Джеймс Боуэн, восстанавливающийся от наркотической зависимости уличный музыкант, встретил рыжего уличного кота и его жизнь изменилась в лучшую сторону.

Качество: BDRip 720p
Формат: MKV
Видео кодек: H.264
Аудио кодек: AC3

Видео: 1280x536p (2.40:1), 23.976 fps, AVC MPEG-4 (x264), High@L4.1, ~4 991 kbps avg., 0.303 bits/(pixel*frame)
Аудио#1: Русский: 48.0 kHz, AC3, 6 ch, ~640 kbps avg [Профессиональный (многоголосый, закадровый) BD CEE]
Аудио#2: Английский: 48.0 kHz, AC3, 6 ch, ~640 kbps avg [Оригинал]
Format : Matroska
Format version : Version 4 / Version 2
File size : 4.59 GiB
Duration : 1h 42mn
Overall bit rate : 6 398 Kbps
Movie name : Уличный кот по кличке Боб. (Tonik)
Encoded date : UTC 2017-03-03 07:22:36
Writing application : mkvmerge v7.1.0 ('Good Love') 64bit built on Jul 27 2014 13:06:55
Writing library : libebml v1.3.0 + libmatroska v1.4.1
_STATISTICS_WRITING_APP : mkvmerge v7.1.0 ('Good Love') 64bit built on Jul 27 2014 13:06:55
_STATISTICS_WRITING_DATE_UTC : 2017-03-03 07:22:36
_STATISTICS_TAGS : BPS DURATION NUMBER_OF_FRAMES NUMBER_OF_BYTES
DURATION : 01:37:44.094000000
NUMBER_OF_FRAMES : 1115
NUMBER_OF_BYTES : 60622

Video
ID : 1
Format : AVC
Format/Info : Advanced Video Codec
Format profile : High@L4.1
Format settings, CABAC : Yes
Format settings, ReFrames : 12 frames
Codec ID : V_MPEG4/ISO/AVC
Duration : 1h 42mn
Bit rate : 4 991 Kbps
Width : 1 280 pixels
Height : 536 pixels
Display aspect ratio : 2.40:1
Frame rate mode : Constant
Frame rate : 23.976 fps
Color space : YUV
Chroma subsampling : 4:2:0
Bit depth : 8 bits
Scan type : Progressive
Bits/(Pixel*Frame) : 0.303
Stream size : 3.58 GiB (78%)
Writing library : x264 core 148 r2744kMod b97ae06
Encoding settings : cabac=1 / ref=12 / deblock=1:-3:-3 / analyse=0x3:0x133 / me=umh / subme=10 / psy=1 / fade_compensate=0.00 / psy_rd=0.92:0.00 / mixed_ref=1 / me_range=32 / chroma_me=1 / trellis=2 / 8x8dct=1 / cqm=0 / deadzone=21,11 / fast_pskip=1 / chroma_qp_offset=-2 / threads=3 / lookahead_threads=1 / sliced_threads=0 / nr=0 / decimate=1 / interlaced=0 / bluray_compat=0 / constrained_intra=0 / bframes=8 / b_pyramid=2 / b_adapt=2 / b_bias=0 / direct=3 / weightb=1 / open_gop=0 / weightp=2 / keyint=250 / keyint_min=23 / scenecut=40 / intra_refresh=0 / rc=crf / mbtree=0 / crf=17.6000 / qcomp=0.77 / qpmin=0 / qpmax=69 / qpstep=4 / ip_ratio=1.28 / pb_ratio=1.26 / aq=3:0.77 / zones=46,867,crf=12.0/147634,147713,crf=12.0
Language : English
Default : Yes
Forced : No
_STATISTICS_WRITING_APP : mkvmerge v7.1.0 ('Good Love') 64bit built on Jul 27 2014 13:06:55
_STATISTICS_WRITING_DATE_UTC : 2017-03-03 07:22:36
_STATISTICS_TAGS : BPS DURATION NUMBER_OF_FRAMES NUMBER_OF_BYTES
DURATION : 01:42:47.995000000
NUMBER_OF_FRAMES : 147884
NUMBER_OF_BYTES : 3944127093

Audio #1
ID : 2
Format : AC-3
Format/Info : Audio Coding 3
Mode extension : CM (complete main)
Format settings, Endianness : Big
Codec ID : A_AC3
Duration : 1h 42mn
Bit rate mode : Constant
Bit rate : 640 Kbps
Channel(s) : 6 channels
Channel positions : Front: L C R, Side: L R, LFE
Sampling rate : 48.0 KHz
Bit depth : 16 bits
Compression mode : Lossy
Stream size : 471 MiB (10%)
Language : Russian
Default : Yes
Forced : No

Audio #2
ID : 3
Format : AC-3
Format/Info : Audio Coding 3
Mode extension : CM (complete main)
Format settings, Endianness : Big
Codec ID : A_AC3
Duration : 1h 42mn
Bit rate mode : Constant
Bit rate : 640 Kbps
Channel(s) : 6 channels
Channel positions : Front: L C R, Side: L R, LFE
Sampling rate : 48.0 KHz
Bit depth : 16 bits
Compression mode : Lossy
Stream size : 471 MiB (10%)
Language : English
Default : No
Forced : No

Text #1
ID : 4
Format : UTF-8
Codec ID : S_TEXT/UTF8
Codec ID/Info : UTF-8 Plain Text
Title : Forced
Language : Russian
Default : Yes
Forced : No

Text #2
ID : 5
Format : UTF-8
Codec ID : S_TEXT/UTF8
Codec ID/Info : UTF-8 Plain Text
Language : Russian
Default : No
Forced : No

Text #3
ID : 6
Format : UTF-8
Codec ID : S_TEXT/UTF8
Codec ID/Info : UTF-8 Plain Text
Language : English
Default : No
Forced : No

Text #4
ID : 7
Format : UTF-8
Codec ID : S_TEXT/UTF8
Codec ID/Info : UTF-8 Plain Text
Title : SDH
Language : English
Default : No
Forced : No

Menu
00:00:00.000 : en:Chapter 1
00:06:55.164 : en:Chapter 2
00:11:37.071 : en:Chapter 3
00:18:52.881 : en:Chapter 4
00:28:30.250 : en:Chapter 5
00:31:36.895 : en:Chapter 6
00:37:52.061 : en:Chapter 7
00:45:03.242 : en:Chapter 8
00:49:39.810 : en:Chapter 9
00:54:35.063 : en:Chapter 10
01:03:16.000 : en:Chapter 11
01:07:13.821 : en:Chapter 12
01:11:18.774 : en:Chapter 13
01:19:17.502 : en:Chapter 14
01:27:15.897 : en:Chapter 15
01:34:30.665 : en:Chapter 16
скриншот   скриншот   скриншот   скриншот  
pb.wtf



Скачать Уличный кот по кличке Боб через торрент http://s019.radikal.ru/i600/1702/f9/446dcebeabe0.jpg Скачать фильм Уличный кот по кличке Боб через торрент бесплантно в хорошем качестве Описание: Рассказ о том, как Джеймс Боуэн, восстанавливающийся от наркотической зависимости уличный музыкант, встретил рыжего уличного кота ... 9.4 10 7
Торрент: Зарегистрирован [2017-03-05 12:22] · скачан: 151 раз
Статус: √ проверено
Размер: 4.59 GB
Как cкачать? Как скачать Уличный кот по кличке Боб через торрент | qTorrent

% Раздел Тема Автор DL S | L
Фильмы [HD 720p, 1080p] (Хороший звук DUB, MVO) [ 7.75 GB ] Уличный кот по кличке Боб / A Street Cat Named Bob [2016 биография BDRip 1080p] [MVO] [ BD CEE] + [AVO] killermax2013 Скачать
1 | 0
Фильмы 2016 [DVDrip, WEB-DLRip, HDrip] (DUB, MVO) [ 1.46 GB ] Уличный кот по кличке Боб / A Street Cat Named Bob [2016 BDRip] многоголосый [] Twi7ter Скачать
1 | 0
Фильмы 2016 [DVDrip, WEB-DLRip, HDrip] (DUB, MVO) [ 1.44 GB ] Уличный кот по кличке Боб / A Street Cat Named Bob [2016 BDRip-AVC от sokol_ok] MVO [] sokol_ok Скачать
2 | 0
Фильмы 2016 [DVDrip, WEB-DLRip, HDrip] (DUB, MVO) [ 1.37 GB ] Уличный кот по кличке Боб / A Street Cat Named Bob [2016 HDRip] многоголосый [] Ворон Скачать
1 | 0
T Фильмы [HD 720p, 1080p] (Хороший звук DUB, MVO) [ 8.27 GB ] Уличный кот по кличке Боб / A Street Cat Named Bob [2016 BDRip 1080p] многоголосый [] Ворон Скачать
1 | 0
Фильмы 2016 [DVDrip, WEB-DLRip, HDrip] (DUB, MVO) [ 2.06 GB ] Уличный кот по кличке Боб / A Street Cat Named Bob [2016 биография HDRip многоголосый ""] coc900 Скачать
1 | 0
Фильмы 2016 [DVDrip, WEB-DLRip, HDrip] (DUB, MVO) [ 746 MB ] Уличный кот по кличке Боб / A Street Cat Named Bob [2016 BDRip-AVC от sokol_ok] MVO [] sokol_ok Скачать
2 | 0

28-11-2019 20:33  

Отключить всю рекламу на сайте

    Дорогой пользователь! Огромная просьба, поблагодарите релизера, оцените раздачу и оставьте свои комментарий, если Вы скачали Уличный кот по кличке Боб через торрент бесплатно! Внесите свою лепту в развитие PiratBit!
    Комментировать посты могут только пользователи прошедшие не сложную регистрацию
    Показать сообщения:    

    Уличный кот по кличке Боб через торрент
    Скачать бесплатно Уличный кот по кличке Боб
    Уличный кот по кличке Боб скачать торрент
    Уличный кот по кличке Боб смотреть онлайн
    Cкачать фильм Уличный кот по кличке Боб бесплатно
    Уличный кот по кличке Боб скачать торрент в хорошем качестве
    Уличный кот по кличке Боб смотреть онлайн бесплатно в хорошем качестве


    Вы не можете начинать темы
    Вы не можете отвечать на сообщения
    Вы не можете редактировать свои сообщения
    Вы не можете удалять свои сообщения
    Вы не можете голосовать в опросах
    Вы не можете прикреплять файлы к сообщениям
    Вы можете скачивать файлы