2 сезон

iTunes

1 сезон

1

iTunes

iTunes

iTunes

1 сезон

RePack

30

ИГРА 18+

pack

ВАЖНО

!!Акция!!

Alien_RageХит недели

RePack

MK11
pack

Забери бонус

RePack

jed

!!Акция!!

Alien_Rage

RePack

fifa19

RePack

Assassins Creed: Odyssey

RePack

NEED FOR SPEED™ PAYBACK

4 сезон

9 сезон

Бесстыжие 9 сезон

Все сериалы

все сериалы на PB.wtf

RePack

FAR CRY 5
  

Одиночка / 1-16 серии из 16 (Виктор Конисевич) [2016, Детектив, криминал, WEB-DLRip 720p] pb.wtf

Одиночка через торрент pb.wtf

Размер: 9.3 GB | Добавлен: 3 года 7 мес. назад | Торрент скачан:82 раза
Скачать  

05-03-2017 18:51 Одиночка Скачать торрент  

Одиночка
Год выпуска: 2016
Страна: Россия, Украина
Жанр: Детектив, криминал
Всего серий: 16
Продолжительность: 16 x ~ 00:45:00
Субтитры: отсутствуют

Режиссер: Виктор Конисевич



В ролях:

Николай Боклан, Андрей Стоянов, Ирина Ефремова, Ванда Конисевич, Алиса Тункевич, Ольга Сумская, Алексей Горбунов

Описание:

Глеб с первого взгляда кажется жестким и принципиальным, его характер сложный и не снисходителен. Он привык все проблемы решать самостоятельно, держать свое слово и быть уважаемым среди знакомых и коллег. Единственное утешение и луч света в жизни Глеба Мечникова - это его дочь Кристина. Мужчина вырастил ее сам, без жены и какой-либо поддержки со стороны родных. Девочке 16 лет, ее отношения с отцом не назовешь простыми, однако любовь, которая есть между ними, невозможно уничтожить. Кристина еще подросток и многого не понимает. Ее стремительность, постоянные обиды и нетерпимость породят немало проблем, которые изменят судьбы отца и дочери навсегда. Несмотря на амбициозность и принципиальность Мечникова, женщины не лишают его внимания. Сильные и независимые красавицы Оксана Волощук и Злата тайком влюбленные в него.

Качество: WEB-DLRip 720p
Формат: MKV
Видео кодек: H.264
Аудио кодек: AC3

Видео: 1280х720 (16:9), 25 fps, AVC MPEG-4 (x264), High@L4.0 ~ 1 778 kbps , 0.077 bit/pixel
Аудио#1: 48 kHz, АС3, 2/0 (L,R), ~192.00 kbps avg
General
Unique ID : 252880271253224280868847691582771700021 (0xBE3EF7FB17F9DB26612891C7CC422135)
Complete name : E:\Загруженные\Одиночка.2016.WEB-DL720p.Files-x\01.Одиночка.2016.WEB-DL720p.Files-x.mkv
Format : Matroska
Format version : Version 4 / Version 2
File size : 655 MiB
Duration : 45 min 34 s
Overall bit rate : 2 010 kb/s
Writing application : Lavf56.25.101
Writing library : Lavf56.25.101 / Lavf56.25.101

Video
ID : 1
Format : AVC
Format/Info : Advanced Video Codec
Format profile : High@L4
Format settings, CABAC : Yes
Format settings, ReFrames : 6 frames
Codec ID : V_MPEG4/ISO/AVC
Duration : 45 min 34 s
Bit rate : 1 778 kb/s
Width : 1 280 pixels
Height : 720 pixels
Display aspect ratio : 16:9
Frame rate mode : Constant
Frame rate : 25.000 FPS
Color space : YUV
Chroma subsampling : 4:2:0
Bit depth : 8 bits
Scan type : Progressive
Bits/(Pixel*Frame) : 0.077
Stream size : 580 MiB (88%)
Writing library : x264 core 142 r2491 24e4fed
Encoding settings : cabac=1 / ref=6 / deblock=1:0:0 / analyse=0x3:0x113 / me=hex / subme=7 / psy=1 / psy_rd=1.00:0.00 / mixed_ref=1 / me_range=16 / chroma_me=1 / trellis=1 / 8x8dct=1 / cqm=0 / deadzone=21,11 / fast_pskip=1 / chroma_qp_offset=-2 / threads=12 / lookahead_threads=2 / sliced_threads=0 / nr=0 / decimate=1 / interlaced=0 / bluray_compat=0 / constrained_intra=0 / bframes=3 / b_pyramid=2 / b_adapt=1 / b_bias=0 / direct=1 / weightb=1 / open_gop=0 / weightp=2 / keyint=100 / keyint_min=10 / scenecut=40 / intra_refresh=0 / rc_lookahead=40 / rc=crf / mbtree=1 / crf=22.0 / qcomp=0.60 / qpmin=0 / qpmax=69 / qpstep=4 / vbv_maxrate=6000 / vbv_bufsize=12000 / crf_max=0.0 / nal_hrd=none / filler=0 / ip_ratio=1.41 / aq=1:1.00
Default : Yes
Forced : No

Audio
ID : 2
Format : AC-3
Format/Info : Audio Coding 3
Mode extension : CM (complete main)
Format settings, Endianness : Big
Codec ID : A_AC3
Duration : 45 min 34 s
Bit rate mode : Constant
Bit rate : 192 kb/s
Channel(s) : 2 channels
Channel positions : Front: L R
Sampling rate : 44.1 kHz
Frame rate : 28.711 FPS (1536 spf)
Bit depth : 16 bits
Compression mode : Lossy
Delay relative to video : -80 ms
Stream size : 62.6 MiB (10%)
Language : unknown
Default : Yes
Forced : No
скриншот   скриншот   скриншот   скриншот  
pb.wtf



Скачать Одиночка через торрент http://s019.radikal.ru/i620/1703/51/b18a753f36e4.jpg Скачать фильм Одиночка через торрент бесплантно в хорошем качестве Описание: Глеб с первого взгляда кажется жестким и принципиальным, его характер сложный и не снисходителен. Он привык все проблемы решать ... 10 10 3
Info! Серебряная раздача, засчитывается только 50% скачанного.
Торрент: Зарегистрирован [2017-03-05 18:51] · скачан: 82 раз
Статус: √ проверено
Размер: 9.3 GB
Как cкачать? Как скачать Одиночка через торрент | qTorrent

% Раздел Тема Автор DL S | L
Наши сериалы [ 27.11 GB ] Одиночка / Сезон: 1 / Серии: 1-16 из 16 [2016 WEB-DL 1080p] bober100 Скачать
1 | 0
Наши сериалы [ 8.64 GB ] Одиночка / Сезон 1 / Серии 1-16 из 16 [2016 WEB-DLRip] oleg8 Скачать
1 | 0

28-11-2019 20:33  

Отключить всю рекламу на сайте

    Дорогой пользователь! Огромная просьба, поблагодарите релизера, оцените раздачу и оставьте свои комментарий, если Вы скачали Одиночка через торрент бесплатно! Внесите свою лепту в развитие PiratBit!
    Комментировать посты могут только пользователи прошедшие не сложную регистрацию
    Показать сообщения:    

    Одиночка через торрент
    Скачать бесплатно Одиночка
    Одиночка скачать торрент
    Одиночка смотреть онлайн
    Cкачать фильм Одиночка бесплатно
    Одиночка скачать торрент в хорошем качестве
    Одиночка смотреть онлайн бесплатно в хорошем качестве


    Вы не можете начинать темы
    Вы не можете отвечать на сообщения
    Вы не можете редактировать свои сообщения
    Вы не можете удалять свои сообщения
    Вы не можете голосовать в опросах
    Вы не можете прикреплять файлы к сообщениям
    Вы можете скачивать файлы