Ссылка на приватное зеркало нашего сайта всего за 1$. Внимание количество ограничено!!!

2 сезон

iTunes

1 сезон

1

2 сезон

2 сезон

iTunes

1 сезон

RePack

30

Новинка

ВАЖНО

ИГРА 18+

pack

RePack

MK11
pack

Забери бонус

RePack

jed

!!Акция!!

Alien_Rage

RePack

fifa19

RePack

Assassins Creed: Odyssey

RePack

NEED FOR SPEED™ PAYBACK

4 сезон

9 сезон

Бесстыжие 9 сезон

Все сериалы

все сериалы на PB.wtf

RePack

FAR CRY 5
  

Путешествие на край Земли / To the Ends of the Earth / Серии: 1-3 (3) (Дэвид Эттвуд) [2005, драма, приключения, DVDRip] [DVO] pb.wtf

Путешествие на край Земли через торрент pb.wtf

Размер: 3.86 GB | Добавлен: 3 года 8 мес. назад | Торрент скачан:68 раз
Скачать  

05-03-2017 22:31 Путешествие на край Земли Скачать торрент  

Путешествие на край Земли / To the Ends of the Earth
Год выхода: 2005
Жанр: драма, приключения
Страна: Великобритания
Продолжительность: 3 x ~01:29:00
Перевод: Профессиональный (двухголосый, закадровый)

Режиссер: Дэвид Эттвуд

В ролях: Денис Блэк, Бенедикт Камбербэтч, Брайан Петтифер, Виктория Хэмилтон, Дэниэл Эванс, Роберт Хоббс, Джаред Харрис, Тео Ланди, Джэми Сивз, Джей Джей Филд

О фильме:
В 1812 году молодой аристократ Эдмунд Талбот поднимается на борт отправляющегося в Австралию старого военного корабля, которым командует капитан Андерсон.
Эдмунд молод, наивен и мечтает о подвигах и приключениях. И его мечты сбываются, но только не совсем так, как он себе представлял. Путешествие выдается куда более головокружительным и опасным…
rating

Качество: DVDRip
Формат: AVI
Видео кодек: XvID
Аудио кодек: AC3
Видео: 720x400 (1.80:1), 25 fps, XviD build 50 ~1630
Звук: 48 kHz, AC3 Dolby Digital, 3/2 (L,C,R,l,r) + LFE ch, ~448.00 kbps avg
General
Complete name : E:\INTERNET\puteshestvie.na.kraj.zemli.2005.DVDRip.LOOK\puteshestvie.na.kraj.zemli.1s.2005.DVDRip.LOOK.avi
Format : AVI
Format/Info : Audio Video Interleave
File size : 1.30 GiB
Duration : 1h 29mn
Overall bit rate : 2 089 Kbps
Movie name : DVD1.Title2.DVDRip
Director : LOOK
Writing application : Lavf52.33.0
Original source form/Name : DVD1

Video
ID : 0
Format : MPEG-4 Visual
Format profile : Simple@L3
Format settings, BVOP : No
Format settings, QPel : No
Format settings, GMC : No warppoints
Format settings, Matrix : Default (H.263)
Codec ID : XVID
Codec ID/Hint : XviD
Duration : 1h 29mn
Bit rate : 1 549 Kbps
Width : 720 pixels
Height : 400 pixels
Display aspect ratio : 16:9
Frame rate : 25.000 fps
Color space : YUV
Chroma subsampling : 4:2:0
Bit depth : 8 bits
Scan type : Progressive
Compression mode : Lossy
Bits/(Pixel*Frame) : 0.215
Stream size : 990 MiB (74%)
Writing library : XviD 1.2.1 (UTC 2008-12-04)

Audio
ID : 1
Format : AC-3
Format/Info : Audio Coding 3
Mode extension : CM (complete main)
Format settings, Endianness : Big
Codec ID : 2000
Duration : 1h 29mn
Bit rate mode : Constant
Bit rate : 448 Kbps
Channel(s) : 6 channels
Channel positions : Front: L C R, Side: L R, LFE
Sampling rate : 48.0 KHz
Compression mode : Lossy
Stream size : 286 MiB (21%)
Alignment : Aligned on interleaves
pb.wtf



Скачать Путешествие на край Земли через торрент http://s40.radikal.ru/i087/1012/64/aa48ba13b322.jpg Скачать фильм Путешествие на край Земли через торрент бесплантно в хорошем качестве О фильме:В 1812 году молодой аристократ Эдмунд Талбот поднимается на борт отправляющегося в Австралию старого военного корабля, которым ... 10 10 2
Торрент: Зарегистрирован [2017-03-05 22:31] · скачан: 68 раз
Статус: √ проверено
Размер: 3.86 GB
Как cкачать? Как скачать Путешествие на край Земли через торрент | qTorrent

28-11-2019 20:33  

Отключить всю рекламу на сайте

    Дорогой пользователь! Огромная просьба, поблагодарите релизера, оцените раздачу и оставьте свои комментарий, если Вы скачали Путешествие на край Земли через торрент бесплатно! Внесите свою лепту в развитие PiratBit!
    Комментировать посты могут только пользователи прошедшие не сложную регистрацию
    Показать сообщения:    

    Путешествие на край Земли через торрент
    Скачать бесплатно Путешествие на край Земли
    Путешествие на край Земли скачать торрент
    Путешествие на край Земли смотреть онлайн
    Cкачать фильм Путешествие на край Земли бесплатно
    Путешествие на край Земли скачать торрент в хорошем качестве
    Путешествие на край Земли смотреть онлайн бесплатно в хорошем качестве


    Вы не можете начинать темы
    Вы не можете отвечать на сообщения
    Вы не можете редактировать свои сообщения
    Вы не можете удалять свои сообщения
    Вы не можете голосовать в опросах
    Вы не можете прикреплять файлы к сообщениям
    Вы можете скачивать файлы