Ссылка на приватное зеркало всего за 1$. Внимание количество ограничено!!!

iTunes

iTunes

iTunes

1

iTunes

iTunes

iTunes

iTunes

iTunes

30
pack

$ от Little Big

ВАЖНО

!!Акция!!

Alien_RageХит недели

RePack

Resident Evil 21

ИГРА 18+

pack

RePack

jed

!!Акция!!

Alien_Rage

RePack

fifa19

RePack

Assassins Creed: Odyssey

RePack

NEED FOR SPEED™ PAYBACK

4 сезон

9 сезон

Бесстыжие 9 сезон

Все сериалы

все сериалы на PB.wtf

RePack

FAR CRY 5
  

Одиссея / L'odyssée (Жером Салль) [2016, приключения, биография, драма, HDTV 1080i] [DUB] (TV1000 Premium HD) pb.wtf

Одиссея через торрент pb.wtf

Размер: 4.24 GB | Добавлен: 3 года 4 мес. назад | Торрент скачан:639 раз
Скачать  

05-03-2017 23:17 Одиссея Скачать торрент  

Одиссея / L'odyssée
Год выпуска: 2016
Страна: Франция
Производство: Canal+ [fr], Curiosa Films, TF1, Versus Production, Wild Bunch
Жанр: приключения, биография, драма
Продолжительность: 01:57:48
Перевод: Дублированный [TV1000 Premium HD]
Субтитры: нет

Режиссер: Жером Салль

Авторы сценария: Жером Салль, Лорен Тернер, Жан-Мишель Кусто

В ролях: Ламбер Вильсон, Пьер Нинэ, Одри Тоту, Лоран Люка, Бенжамин Лаверн, Венсан Энен, Тибо де Монталембер, Рогер Ван Хол, Хлоя Хиршман

Описание: Есть пути, которые не отыщешь на картах. Есть цели, которые укажет только любовь. «Одиссея» — самый масштабный приключенческий проект современного французского кино. История героя, открывшего человечеству «второй космос». Его экспедиции вдохновили миллионы. Его главное путешествие осталось тайной. Первопроходец. Мечтатель. Бунтарь. Легендарный Жак-Ив Кусто: его корабль, его открытия, его настоящая Одиссея...

rating

Качество: HDTV 1080i
Формат: MKV
Видео кодек: AVC
Аудио кодек: AC3
Видео: 1920x1080 at 25.000 fps, MPEG4-AVC, ~4767 kbps avg
Аудио: 48 kHz, AC3, 3/2 (L,C,R,l,r) + LFE ch, ~384 kbps avg |Дубляж, TV1000 Premium HD|

***Релиз - flaSI-I.
General
Unique ID : 228739525752743013361948591870994333974 (0xAC15A15585AB03B9874663C64494C116)
Complete name : F:\L'odyssée 2016 1080i HDTV MPEG4 DD5.1.mkv
Format : Matroska
Format version : Version 4 / Version 2
File size : 4.24 GiB
Duration : 1h 57mn
Overall bit rate : 5 158 Kbps
Movie name : Release for RuTracker © flaSI-I
Encoded date : UTC 2017-03-05 20:26:43
Writing application : mkvmerge v9.9.0 ('Pick Up') 64bit
Writing library : libebml v1.3.4 + libmatroska v1.4.5

Video
ID : 1
Format : AVC
Format/Info : Advanced Video Codec
Format profile : High@L4
Format settings, CABAC : Yes
Format settings, ReFrames : 4 frames
Codec ID : V_MPEG4/ISO/AVC
Duration : 1h 57mn
Bit rate : 4 672 Kbps
Width : 1 920 pixels
Height : 1 080 pixels
Display aspect ratio : 16:9
Frame rate mode : Constant
Frame rate : 25.000 fps
Standard : Component
Color space : YUV
Chroma subsampling : 4:2:0
Bit depth : 8 bits
Scan type : Interlaced
Scan order : Top Field First
Bits/(Pixel*Frame) : 0.090
Stream size : 3.84 GiB (91%)
Language : French
Default : Yes
Forced : No
Color range : Limited
Color primaries : BT.709
Transfer characteristics : BT.709
Matrix coefficients : BT.709

Audio
ID : 2
Format : AC-3
Format/Info : Audio Coding 3
Mode extension : CM (complete main)
Format settings, Endianness : Big
Codec ID : A_AC3
Duration : 1h 57mn
Bit rate mode : Constant
Bit rate : 384 Kbps
Channel(s) : 6 channels
Channel positions : Front: L C R, Side: L R, LFE
Sampling rate : 48.0 KHz
Compression mode : Lossy
Stream size : 324 MiB (7%)
Title : Дублированный
Language : Russian
Default : Yes
Forced : No

Menu
00:00:00.000 : en:Chapter 1
00:04:07.330 : en:Chapter 2
00:08:10.573 : en:Chapter 3
00:12:41.260 : en:Chapter 4
00:21:23.407 : en:Chapter 5
00:24:57.245 : en:Chapter 6
00:35:15.238 : en:Chapter 7
00:39:15.311 : en:Chapter 8
00:47:03.779 : en:Chapter 9
00:52:57.340 : en:Chapter 10
00:56:25.298 : en:Chapter 11
01:04:05.549 : en:Chapter 12
01:05:40.853 : en:Chapter 13
01:11:22.945 : en:Chapter 14
01:17:05.662 : en:Chapter 15
01:24:36.988 : en:Chapter 16
01:30:36.597 : en:Chapter 17
01:34:21.363 : en:Chapter 18
01:39:32.466 : en:Chapter 19
01:40:52.421 : en:Chapter 20
01:47:26.439 : en:Chapter 21
pb.wtf



Скачать Одиссея через торрент http://i90.fastpic.ru/big/2017/0305/d2/499e3f781540b2a00e73a66bcd14bad2.jpg Скачать фильм Одиссея через торрент бесплантно в хорошем качестве Описание: Есть пути, которые не отыщешь на картах. Есть цели, которые укажет только любовь. «Одиссея» — самый масштабный приключенческий ... 9.6 10 11
Info! Золотая раздача, скачанное не засчитывается.
Торрент: Зарегистрирован [2017-03-05 23:17] · скачан: 639 раз
Статус: √ проверено
Размер: 4.24 GB
Как cкачать? Как скачать Одиссея через торрент | qTorrent

28-11-2019 20:33  

Отключить всю рекламу на сайте

    Дорогой пользователь! Огромная просьба, поблагодарите релизера, оцените раздачу и оставьте свои комментарий, если Вы скачали Одиссея через торрент бесплатно! Внесите свою лепту в развитие PiratBit!
    Комментировать посты могут только пользователи прошедшие не сложную регистрацию
    Показать сообщения:    

    Одиссея через торрент
    Скачать бесплатно Одиссея
    Одиссея скачать торрент
    Одиссея смотреть онлайн
    Cкачать фильм Одиссея бесплатно
    Одиссея скачать торрент в хорошем качестве
    Одиссея смотреть онлайн бесплатно в хорошем качестве


    Вы не можете начинать темы
    Вы не можете отвечать на сообщения
    Вы не можете редактировать свои сообщения
    Вы не можете удалять свои сообщения
    Вы не можете голосовать в опросах
    Вы не можете прикреплять файлы к сообщениям
    Вы можете скачивать файлы