Ссылка на приватное зеркало нашего сайта всего за 1$. Внимание количество ограничено!!!

2 сезон

iTunes

1 сезон

1

iTunes

iTunes

iTunes

1 сезон

RePack

30

ИГРА 18+

pack

ВАЖНО

!!Акция!!

Alien_RageХит недели

RePack

MK11
pack

Забери бонус

RePack

jed

!!Акция!!

Alien_Rage

RePack

fifa19

RePack

Assassins Creed: Odyssey

RePack

NEED FOR SPEED™ PAYBACK

4 сезон

9 сезон

Бесстыжие 9 сезон

Все сериалы

все сериалы на PB.wtf

RePack

FAR CRY 5
  

Куркуль (1-2 серии из 2) (Екатерина Шагалова) [2016 , драма, HDTVRip-AVC] Не требуется [Русский] от R.G.Resident pb.wtf

Куркуль через торрент pb.wtf

Размер: 1.18 GB | Добавлен: 3 года 7 мес. назад | Торрент скачан:63 раза
Скачать  

06-03-2017 06:01 Куркуль Скачать торрент  

Куркуль


Год выпуска: 2016

Страна: Россия
Жанр: драма
Продолжительность: 00:46:01
Перевод: Не требуется [Русский]
Режиссер: Екатерина Шагалова
В ролях:

Алексей Кравченко ('Куркуль', фермер), Александр Феклистов (Жилов, вице-мэр), Данил Стеклов, Наталия Вдовина, Никита Тезин, Олег Васильков, Александр Лырчиков
Описание:
Антон Терехов - толковый фермер, работяга, взявшийся за доставшееся по наследству от отца хозяйство и поднявший его, вопреки всему. Но теперь ферма под внезапной угрозой: на землю Антона претендует коттеджный поселок, строительством которого руководит вице-мэр райцентра Жилов. Он уже справился с большинством арендаторов, не гнушаясь ни подкупом, ни шантажом. Сможет ли Терехов выйти из неравного поединка победителем?

Качество: HDTVRip-AVC Исх HDTV 1080 By ruslanishe Rip by
Формат: MKV
Видео: AVC, 1024x576 (16:9), 1660 kbps, 25 fps, 0,113 bpp
Аудио: AC3 / 2.0 / 48 kHz / 192 kbps /

General
Unique ID : 174037132907760972816383474074149718353 (0x82EE552352AE6978A6A232ED48840951)
Complete name : E:\Куркуль HDTVRip-AVC Resident\kurkul.1.seriya.2016.HDTVRip-AVC.by.White Smoke.R.G.Resident.mkv
Format : Matroska
Format version : Version 4 / Version 2
File size : 610 MiB
Duration : 46 min
Overall bit rate : 1 854 kb/s
Movie name : kurkul.1.seriya.2016.HDTVRip-AVC.by.White Smoke.R.G.Resident.mkv
Encoded date : UTC 2017-03-06 02:39:29
Writing application : mkvmerge v6.8.0 ('Theme for Great Cities') 64bit built on Mar 2 2014 21:34:26
Writing library : libebml v1.3.0 + libmatroska v1.4.1

Video
ID : 1
Format : AVC
Format/Info : Advanced Video Codec
Format profile : High@L4.1
Format settings, CABAC : Yes
Format settings, ReFrames : 12 frames
Codec ID : V_MPEG4/ISO/AVC
Duration : 46 min
Bit rate : 1 660 kb/s
Width : 1 024 pixels
Height : 576 pixels
Display aspect ratio : 16:9
Frame rate mode : Constant
Frame rate : 25.000 FPS
Color space : YUV
Chroma subsampling : 4:2:0
Bit depth : 8 bits
Scan type : Progressive
Bits/(Pixel*Frame) : 0.113
Stream size : 535 MiB (88%)
Writing library : x264 core 148 r2638 7599210
Encoding settings : cabac=1 / ref=12 / deblock=1:-2:-1 / analyse=0x3:0x113 / me=umh / subme=11 / psy=1 / psy_rd=0.00:0.15 / mixed_ref=1 / me_range=32 / chroma_me=1 / trellis=2 / 8x8dct=1 / cqm=0 / deadzone=21,11 / fast_pskip=0 / chroma_qp_offset=-3 / threads=6 / lookahead_threads=1 / sliced_threads=0 / nr=0 / decimate=0 / interlaced=0 / bluray_compat=0 / constrained_intra=0 / bframes=12 / b_pyramid=2 / b_adapt=2 / b_bias=0 / direct=1 / weightb=0 / open_gop=0 / weightp=2 / keyint=250 / keyint_min=25 / scenecut=40 / intra_refresh=0 / rc_lookahead=40 / rc=2pass / mbtree=1 / bitrate=1660 / ratetol=1.0 / qcomp=0.70 / qpmin=0 / qpmax=69 / qpstep=4 / cplxblur=20.0 / qblur=0.5 / vbv_maxrate=50000 / vbv_bufsize=65500 / nal_hrd=none / filler=0 / ip_ratio=1.40 / aq=1:1.00
Default : Yes
Forced : No
Statistics Tags Issue : mkvmerge v7.0.0 ('Where We Going') 32bit built on Jun 9 2014 15:08:34 2017-03-06 02:22:22 / mkvmerge v6.8.0 ('Theme for Great Cities') 64bit built on Mar 2 2014 21:34:26 2017-03-06 02:39:29
FromStats_BitRate : 1659745
FromStats_Duration : 00:46:01.400000000
FromStats_FrameCount : 69035
FromStats_StreamSize : 572902706

Audio
ID : 2
Format : AC-3
Format/Info : Audio Coding 3
Mode extension : CM (complete main)
Format settings, Endianness : Big
Codec ID : A_AC3
Duration : 46 min
Bit rate mode : Constant
Bit rate : 192 kb/s
Channel(s) : 2 channels
Channel positions : Front: L R
Sampling rate : 48.0 kHz
Frame rate : 31.250 FPS (1536 spf)
Compression mode : Lossy
Stream size : 63.2 MiB (10%)
Default : Yes
Forced : No

© Оформление by White Smoke pb.wtf



Скачать Куркуль через торрент http://i1.imageban.ru/out/2017/03/06/f3d862fadb3ecb8a8081f2e12d896359.jpg Скачать фильм Куркуль через торрент бесплантно в хорошем качестве Описание: Антон Терехов - толковый фермер, работяга, взявшийся за доставшееся по наследству от отца хозяйство и поднявший его, вопреки ... 10 10 3
Info! Золотая раздача, скачанное не засчитывается.
Торрент: Зарегистрирован [2017-03-06 06:01] · скачан: 63 раз
Статус: √ проверено
Размер: 1.18 GB
Как cкачать? Как скачать Куркуль через торрент | qTorrent

% Раздел Тема Автор DL S | L
R.G.Resident - Сериалы, Видео [ 1.09 GB ] Куркуль / 1-2 серии из 2 [2017 HDTVRip ] Русский ruslanishe Скачать
1 | 0

28-11-2019 20:33  

Отключить всю рекламу на сайте

    Дорогой пользователь! Огромная просьба, поблагодарите релизера, оцените раздачу и оставьте свои комментарий, если Вы скачали Куркуль через торрент бесплатно! Внесите свою лепту в развитие PiratBit!
    Комментировать посты могут только пользователи прошедшие не сложную регистрацию
    Показать сообщения:    

    Куркуль через торрент
    Скачать бесплатно Куркуль
    Куркуль скачать торрент
    Куркуль смотреть онлайн
    Cкачать фильм Куркуль бесплатно
    Куркуль скачать торрент в хорошем качестве
    Куркуль смотреть онлайн бесплатно в хорошем качестве


    Вы не можете начинать темы
    Вы не можете отвечать на сообщения
    Вы не можете редактировать свои сообщения
    Вы не можете удалять свои сообщения
    Вы не можете голосовать в опросах
    Вы не можете прикреплять файлы к сообщениям
    Вы можете скачивать файлы