Ссылка на приватное зеркало нашего сайта всего за 1$. Внимание количество ограничено!!!

2 сезон

iTunes

1 сезон

1

2 сезон

2 сезон

iTunes

1 сезон

RePack

30

Новинка

ВАЖНО

ИГРА 18+

pack

RePack

MK11
pack

Забери бонус

RePack

jed

!!Акция!!

Alien_Rage

RePack

fifa19

RePack

Assassins Creed: Odyssey

RePack

NEED FOR SPEED™ PAYBACK

4 сезон

9 сезон

Бесстыжие 9 сезон

Все сериалы

все сериалы на PB.wtf

RePack

FAR CRY 5
  

Оттенки синего / Shades of Blue / Сезон: 2 / Серии 1-3 из 13 (Дэн Лернер, Милисент Шелтон, Дэвид Бойд) [2017, Драма, детектив, HDTVRip] [MVO] (ColdFilm) pb.wtf

Оттенки синего через торрент pb.wtf

Размер: 1.37 GB | Добавлен: 3 года 8 мес. назад | Торрент скачан:7 раз
Скачать  

06-03-2017 09:33 Оттенки синего Скачать торрент  

Оттенки синего / Shades of Blue

Год выпуска: 2017
Страна: США
Жанр: Драма, детектив
Продолжительность: ~00:42:00
Перевод: Любительский (многоголосый закадровый) ColdFilm
Субтитры: отсутствуют

Режиссёр: Дэн Лернер, Милисент Шелтон, Бэрри Левинсон

В ролях: Дженнифер Лопес, Рэй Лиотта, Дреа Де Маттео, Уоррен Коул, Дайо Окенийи, Сара Джеффри, Линн Марокола, Лесли Силва, Кэтрин Кейтс, Дин Гейер

Описание:
Харли Сантос – сексуальная женщина-детектив, работающая в Нью-Йорке, а в свободное от службы время – мать одиночка. Полицейская дорожка приводит её в дружный коллектив грязных копов, с удовольствием берущих взятки, покрывающих преступников и занимающихся иными видами криминальной деятельности, с которой вообще-то призваны бороться. Харли не отстаёт в зарабатывании нечестного бабла от своих коллег. Но, если те левыми доходами обеспечивают себе красивую жизнь, то Харли деньги нужны для другого. С их помощью она хочет обеспечить достойное будущее для собственной дочери – девочки талантливой и честной. Проблемы начинаются, когда героиня попадает в сети ФБР. Сотрудники Бюро принуждают её стучать на тех, кто ещё вчера был ей друзьями-приятелями. А значит, придётся идти по тонкой линии между любовью и изменившимися обстоятельствами, предательством и честью.



Качество: HDTVRip
Формат: AVI
Видео: XviD, 720x400 (16:9), 29.970 fps, ~1200 kbps
Аудио: AC3, 48 kHz, 2 ch, 192 kbps
General
Complete name : E:\Shades.of.Blue.S02E01.HDTVRip.ColdFilm.RU.avi
Format : AVI
Format/Info : Audio Video Interleave
File size : 452 MiB
Duration : 43mn 51s
Overall bit rate : 1 440 Kbps
Writing application : VirtualDubMod 1.5.10.2 (build 2540/release)
Writing library : VirtualDubMod build 2540/release

Video
ID : 0
Format : xvid
Codec ID : xvid
Duration : 43mn 51s
Bit rate : 1 182 Kbps
Width : 720 pixels
Height : 400 pixels
Display aspect ratio : 16:9
Frame rate : 29.970 fps
Bits/(Pixel*Frame) : 0.137
Stream size : 371 MiB (82%)

Audio
ID : 1
Format : AC-3
Format/Info : Audio Coding 3
Mode extension : CM (complete main)
Format settings, Endianness : Big
Codec ID : 2000
Duration : 43mn 51s
Bit rate mode : Constant
Bit rate : 192 Kbps
Channel(s) : 2 channels
Channel positions : Front: L R
Sampling rate : 48.0 KHz
Compression mode : Lossy
Stream size : 60.2 MiB (13%)
Alignment : Split accross interleaves
Внимание! Раздача ведётся путём добавления новых серий; при каждом добавлении создаётся новый торрент. Чтобы начать докачку новой серии, пользователям необходимо сделать следующее:
(1) остановить скачивание,
(2) удалить старый торрент у себя из клиента (старые серии удалять не надо),
(3) скачать новый торрент и запустить его у себя в клиенте вместо старого, при этом указать клиенту путь в старую папку куда и должно происходить скачивание новых серий.
Ваш клиент при этом должен произвести хеширование (проверку) старой папки (если не производит сам - помогите ему сделать это), и будет докачивать только те серии которых у вас ещё нет. Старые серии при этом не удаляются, а продолжают раздаваться!
Eсли вы уже удалили старые серии, то предотвратить повторную закачку старых серий можно, отжав галочку в соответствующих местах при запуске нового торрента. По возможности, желательно не удалять старые серии как можно дольше чтобы релизёр не столько продолжал раздавать старые серии, а смог сконцентрироваться на новых.
pb.wtf



Скачать Оттенки синего через торрент http://i91.fastpic.ru/big/2017/0306/4f/61f4f0998e1735f83c0e7618b939fb4f.jpg Скачать фильм Оттенки синего через торрент бесплантно в хорошем качестве Описание:Харли Сантос – сексуальная женщина-детектив, работающая в Нью-Йорке, а в свободное от службы время – мать одиночка. Полицейская ... 8 10 3
Торрент: Зарегистрирован [2017-03-20 19:31] · скачан: 7 раз
Статус: √ проверено
Размер: 1.37 GB
Как cкачать? Как скачать Оттенки синего через торрент | qTorrent



Последний раз редактировалось: killermax2013 (2017-03-20 19:31), всего редактировалось 1 раз

28-11-2019 20:33  

Отключить всю рекламу на сайте

06-03-2017 10:24 Оттенки синего Скачать торрент  

когда ж уже оттенки коричневого выйдут, никак не дождусьpb.wtf



06-03-2017 10:45 Оттенки синего Скачать торрент  

glasgo писал(а):

когда ж уже оттенки коричневого выйдут, никак не дождусь

у них в тренде только blue pb.wtf



06-03-2017 14:34 Оттенки синего Скачать торрент  

killermax2013 писал(а):

glasgo писал(а):

когда ж уже оттенки коричневого выйдут, никак не дождусь

у них в тренде только blue

точнее и не скажешь pb.wtf



    Дорогой пользователь! Огромная просьба, поблагодарите релизера, оцените раздачу и оставьте свои комментарий, если Вы скачали Оттенки синего через торрент бесплатно! Внесите свою лепту в развитие PiratBit!
    Комментировать посты могут только пользователи прошедшие не сложную регистрацию
    Показать сообщения:    

    Оттенки синего через торрент
    Скачать бесплатно Оттенки синего
    Оттенки синего скачать торрент
    Оттенки синего смотреть онлайн
    Cкачать фильм Оттенки синего бесплатно
    Оттенки синего скачать торрент в хорошем качестве
    Оттенки синего смотреть онлайн бесплатно в хорошем качестве


    Вы не можете начинать темы
    Вы не можете отвечать на сообщения
    Вы не можете редактировать свои сообщения
    Вы не можете удалять свои сообщения
    Вы не можете голосовать в опросах
    Вы не можете прикреплять файлы к сообщениям
    Вы можете скачивать файлы