новый адрес
Мега распродажа FORZA HORIZON 4 ULTIMATE+ВСЕ DLC+ОНЛАЙН всего за 499р. 349 руб. (супер цена). Внимание количество ограничено!!!

iTunes

1+1

iTunes

мы

iTunes

1

iTunes

Чернобыль

iTunes

Ральф против интернета

Лицензия

ПШазам

Лицензия

Игра престолов

Лицензия

30
pack

ВАЖНО

!!Акция!!

Alien_RageХит недели

RePack

Resident Evil 21

ИГРА 18+

pack

RePack

Metro:Exodus

!!Акция!!

Alien_Rage

RePack

fifa19

RePack

Assassins Creed: Odyssey

RePack

NEED FOR SPEED™ PAYBACK

3 сезон

9 сезон

Бесстыжие 9 сезон

Все сериалы

все сериалы на PB.wtf

RePack

FAR CRY 5
Ребята, катастрофически не хватает 1900р. для оплаты серверов за Октябрь (всвязи с блокировками трафик упал в 3 раза), 1-2р., выручайте.
  

Без вести пропавший (Исаак Шмарук) [1956, СССР, драма, военный, DVDRip от AVP Studio] pb.wtf

Без вести пропавший через торрент pb.wtf

Размер: 1.09 GB | Добавлен: 2 года 8 мес. назад | Торрент скачан:21 раз
Скачать  

06-03-2017 10:04 Без вести пропавший Скачать торрент  

Без вести пропавший
Страна: СССР
Производство: Киевская киностудия

Жанр: драма, военный
Год выпуска: 1956
Продолжительность: 01:13:52

Перевод: Не требуется
Cубтитры: нет
Оригинальная аудиодорожка: русский

Режиссер: Исаак Шмарук

В ролях:
Михаил Кузнецов, Софья Гиацинтова, Байба Индриксоне, Наталья Ужвий, Владимир Васильев (II), Виктор Добровольский, Николай Дупак, Лев Бордуков, Юрий Чекулаев, Олег Голубицкий, Лаврентий Масоха, Сергей Голованов...
Об актёрах подробней

Описание:
1942 год. Воспользовавшись документами погибшего чешского врача, служившего в фашистской армии, советский офицер, чудом оставшийся после боя в живых, добирается до Словакии и разыскивает мать погибшего. Здесь он находит временный приют и поддержку, вступает в интернациональный партизанский отряд и вскоре становится его командиром...

Источник: DVD5 R5
Качество видео: DVDRip
Формат видео: AVI

Видео: 688x512 (4:3), 25 fps, XviD ~ 1909 kbps avg, 0.217 bit/pixel
Аудио: 48 kHz, Dolby Digital AC3 2.0, 192 kbps

Раздача от:
Общее
Полное имя : Bez.vesti.propavshiy.1956.DVDRip_[New-team]_by_AVP_Studio.avi
Формат : AVI
Формат/Информация : Audio Video Interleave
Размер файла : 1,09 Гбайт
Продолжительность : 1 ч. 13 м.
Общий поток : 2111 Кбит/сек
Программа кодирования : VirtualDubMod 1.5.10.3 | www.virtualdub-fr.org || (build 2550/release)
Библиотека кодирования : VirtualDubMod build 2550/release

Видео
Идентификатор : 0
Формат : MPEG-4 Visual
Профиль формата : Advanced Simple@L5
Параметр BVOP формата : 1
Параметр QPel формата : Нет
Параметр GMC формата : Без точки перехода
Параметр матрицы формата : Выборочная
Идентификатор кодека : XVID
Идентификатор кодека/Подсказка : XviD
Продолжительность : 1 ч. 13 м.
Битрейт : 1909 Кбит/сек
Ширина : 688 пикселей
Высота : 512 пикселей
Соотношение сторон : 4:3
Частота кадров : 25,000 кадров/сек
Цветовое пространство : YUV
Субдискретизация насыщенности : 4:2:0
Битовая глубина : 8 бит
Тип развёртки : Прогрессивная
Метод сжатия : С потерями
Бит/(Пиксели*Кадры) : 0.217
Размер потока : 1009 Мбайт (90%)
Библиотека кодирования : XviD 73

Аудио
Идентификатор : 1
Формат : AC-3
Формат/Информация : Audio Coding 3
Расширение режима : CM (complete main)
Параметр Endianness формата : Big
Идентификатор кодека : 2000
Продолжительность : 1 ч. 13 м.
Вид битрейта : Постоянный
Битрейт : 192 Кбит/сек
Каналы : 2 канала
Расположение каналов : Front: L R
Частота : 48,0 КГц
Частота кадров : 31,250 кадров/сек (1536 spf)
Битовая глубина : 16 бит
Метод сжатия : С потерями
Размер потока : 101 Мбайт (9%)
Выравнивание : Разделение по промежуткам
Продолжительность промежутка : 40 мс. (1,00 видеокадр)
Время предзагрузки промежутка : 500 мс
pb.wtf



Скачать Без вести пропавший через торрент http://s02.radikal.ru/i175/1703/95/24924623f5c6.png Скачать фильм Без вести пропавший через торрент бесплантно в хорошем качестве Описание:1942 год. Воспользовавшись документами погибшего чешского врача, служившего в фашистской армии, советский офицер, чудом оставшийся ... 10 10 3
Info! Золотая раздача, скачанное не засчитывается.
Торрент: Зарегистрирован [2017-03-06 10:04] · скачан: 21 раз
Статус: √ проверено
Размер: 1.09 GB
Как cкачать? Как скачать Без вести пропавший через торрент | qTorrent

% Раздел Тема Автор DL S | L
Фантастика [ 250 MB ] Калбазов Константин - Фронтир 1. Пропавшие без вести [Дамир Мударисов 2017 64 kbps MP3] bober100 Скачать
2 | 0
Наши сериалы [ 7.03 GB ] Пропавший без вести. Второе дыхание / 2 сезон / 1-12 серии из 12 [2017 HDTVRip] bober100 Скачать
1 | 0
Наши сериалы [ 7.83 GB ] Пропавший без вести. Второе дыхание / Сезон 2 / Серия 1-12 из 12 [2017 SATRip] oleg8 Скачать
1 | 0
Наши сериалы [ 6.92 GB ] Пропавший без вести. Второе дыхание / Серии: 1-12 из 12 [2017 SATRip-AVC] aleksan55 Скачать
1 | 0
Кино СССР [ 1.09 GB ] Без вести пропавший [1956 СССР военный DVDRip-AVC от AVP Studio] AVP Studio Скачать
1 | 0
Кино СССР [ 745 MB ] Без вести пропавший [1956 СССР военный DVDRip от AVP Studio] AVP Studio Скачать
1 | 0
Зарубежные сериалы [ 7.02 GB ] Пропавший без вести / The Missing / 1 сезон / 8 серий из 8 [2014 BDRip] MVO [Амедиа] bober100 Скачать
1 | 0


>> Регистрируемся здесь <<






Отзывы и комментарии о схеме читаем и пишем здесь: ---> Отзывы и комментарии о схеме

Новые благодарочки в телеграм довольных пользователей:
скриншот   скриншот   скриншот   скриншот   скриншот
    Дорогой пользователь! Огромная просьба, поблагодарите релизера, оцените раздачу и оставьте свои комментарий, если Вы скачали Без вести пропавший через торрент бесплатно! Внесите свою лепту в развитие PiratBit!
    Комментировать посты могут только пользователи прошедшие не сложную регистрацию
    Показать сообщения:    

    Без вести пропавший через торрент
    Скачать бесплатно Без вести пропавший
    Без вести пропавший скачать торрент
    Без вести пропавший смотреть онлайн
    Cкачать фильм Без вести пропавший бесплатно
    Без вести пропавший скачать торрент в хорошем качестве
    Без вести пропавший смотреть онлайн бесплатно в хорошем качестве


    Вы не можете начинать темы
    Вы не можете отвечать на сообщения
    Вы не можете редактировать свои сообщения
    Вы не можете удалять свои сообщения
    Вы не можете голосовать в опросах
    Вы не можете прикреплять файлы к сообщениям
    Вы можете скачивать файлы