Мега распродажа FORZA HORIZON 4 ULTIMATE+ВСЕ DLC+ОНЛАЙН всего за 499р. 349 руб. (супер цена). Внимание количество ограничено!!!

iTunes

1+1

iTunes

мы

iTunes

1

1 сезон

Чернобыль

1 сезон

Ральф против интернета

Лицензия

ПШазам

8 сезон

Игра престолов

Лицензия

30
pack

ВАЖНО

!!Акция!!

Alien_RageХит недели

RePack

Resident Evil 21

ИГРА 18+

pack

RePack

Metro:Exodus

!!Акция!!

Alien_Rage

RePack

fifa19

RePack

Assassins Creed: Odyssey

RePack

NEED FOR SPEED™ PAYBACK

3 сезон

9 сезон

Бесстыжие 9 сезон

Все сериалы

все сериалы на PB.wtf

RePack

FAR CRY 5
Ребята, катастрофически не хватает 2730р. для оплаты серверов за ИЮНЬ (всвязи с блокировками трафик упал в 3 раза), 1-2р., выручайте.
  

Ходячие мертвецы / The Walking Dead / Сезон: 7 / Серия: 1-16 из 16 (Эрнест Р. Дикерсон, Грег Никотеро, Гай Ферленд) [2016-2017, Ужасы, триллер, драма, HDTV 1080i] [MVO] (FOX) pb.wtf

Ходячие мертвецы через торрент pb.wtf

Размер: 40.8 GB | Добавлен: 2 года 3 мес. назад | Торрент скачан:54 раза
Скачать  

06-03-2017 17:30 Ходячие мертвецы Скачать торрент  


Ходячие мертвецы | The Walking Dead

• Год выпуска: 2016
• Страна: США
• Жанр: Ужасы, триллер, драма
• Продолжительность: ~ 00:43:00
• Перевод: Профессиональный (многоголосый закадровый) | FOX

• Режиссёр: Эрнест Р. Дикерсон, Грег Никотеро, Гай Ферленд

• В ролях: Эндрю Линкольн, Скотт Уилсон, Данай Джекесай Гурира, Дэвид Моррисси, Стивен Юн, Лорен Коэн, Чендлер Риггз, Норман Ридус, Мелисса Сюзанн МакБрайд, Эмили Кинни, Чад Коулмэн, Сонеква Мартин

• Описание: Сериал рассказывает историю жизни семьи шерифа после того, как «зомби» — эпидемия апокалиптических масштабов захлестнула земной шар. Шериф Рик Граймс путешествует со своей семьей и небольшой группой выживших в поисках безопасного места для жизни. Но постоянный страх смерти каждый день приносит тяжелые потери, заставляя героев почувствовать глубины человеческой жестокости.



• Качество: HDTV (1080i)
• Формат: TS
• Видео: MPEG-4 AVC, ~ 7000 Кбит/с, 1920x1080, 25 кадр/с
• Аудио #1: MP2, 48 kHz, 2 ch, 192 kbps, CBR - Rus
• Аудио #2: MP2, 48 kHz, 2 ch, 192 kbps, CBR - Eng
• Субтитры: отсутствуют
General
ID : 1 (0x1)
Complete name : Hodyachie.mertvetsy.S07E04.HDTV.1080i.FOX.ts
Format : MPEG-TS
File size : 3.06 GiB
Duration : 56mn 47s
Overall bit rate mode : Variable
Overall bit rate : 7 703 Kbps

Video
ID : 2811 (0xAFB)
Menu ID : 1012 (0x3F4)
Format : AVC
Format/Info : Advanced Video Codec
Format profile : Main@L4
Format settings, CABAC : Yes
Format settings, ReFrames : 4 frames
Format settings, GOP : M=1, N=33
Codec ID : 27
Duration : 56mn 47s
Bit rate mode : Constant
Bit rate : 7 000 Kbps
Width : 1 920 pixels
Height : 1 080 pixels
Display aspect ratio : 16:9
Frame rate : 25.000 fps
Color space : YUV
Chroma subsampling : 4:2:0
Bit depth : 8 bits
Scan type : Interlaced
Scan order : Top Field First
Bits/(Pixel*Frame) : 0.135
Stream size : 2.75 GiB (90%)

Audio #1
ID : 2812 (0xAFC)
Menu ID : 1012 (0x3F4)
Format : MPEG Audio
Format version : Version 1
Format profile : Layer 2
Codec ID : 3
Duration : 56mn 47s
Bit rate mode : Constant
Bit rate : 192 Kbps
Channel(s) : 2 channels
Sampling rate : 48.0 KHz
Compression mode : Lossy
Stream size : 78.0 MiB (2%)
Language : Russian

Audio #2
ID : 2813 (0xAFD)
Menu ID : 1012 (0x3F4)
Format : MPEG Audio
Format version : Version 1
Format profile : Layer 2
Codec ID : 3
Duration : 56mn 47s
Bit rate mode : Constant
Bit rate : 192 Kbps
Channel(s) : 2 channels
Sampling rate : 48.0 KHz
Compression mode : Lossy
Stream size : 78.0 MiB (2%)
Language : English
Когда раздача ведётся путём добавления новых серий, при каждом добавлении создётся новый торрент. Чтобы начать докачку новой серии, пользователям необходимо сделать следующее:
(1) остановить скачивание,
(2) удалить старый торрент у себя из клиента (старые серии удалять не надо),
(3) скачать новый торрент и запустить его у себя в клиенте вместо старого, при этом указать клиенту путь в старую папку, куда и должно происходить скачивание новых серий.
Ваш клиент при этом должен произвести хеширование (проверку) старой папки (если не производит сам - помогите ему сделать это), и будет докачивать только те серии, которых у вас ещё нет. Старые серии при этом не удаляются, а продолжают раздаваться!
Eсли вы уже удалили старые серии, то предотвратить повторную закачку старых серий можно, отжав галочку в соответсвующих местах при запуске нового торрента. По возможности, желательно не удалять старые серии как можно дольше, чтобы релизёр не столько продолжал раздавать старые серии, а смог сконцентрироваться на новых.
pb.wtf



Скачать Ходячие мертвецы через торрент http://i89.fastpic.ru/big/2017/0306/5a/a113694e03915572b649f2c21be8015a.jpg Скачать фильм Ходячие мертвецы через торрент бесплантно в хорошем качестве Описание: Сериал рассказывает историю жизни семьи шерифа после того, как «зомби» — эпидемия апокалиптических масштабов захлестнула земной ... 9.9 10 15
Торрент: Зарегистрирован [2017-04-03 20:51] · скачан: 54 раз
Статус: √ проверено
Размер: 40.8 GB
Как cкачать? Как скачать Ходячие мертвецы через торрент | qTorrent

% Раздел Тема Автор DL S | L
Зарубежные сериалы [ 9.47 GB ] Бойтесь ходячих мертвецов / Fear the Walking Dead / Сезон: 5 / Серии: 1-7 из 16 [2019 HDTVRip 720p] DVO [Kerob] bober100 Скачать
1 | 2
Зарубежные сериалы [ 3.4 GB ] Бойтесь ходячих мертвецов / Fear the Walking Dead / Сезон: 5 / Серии: 1-7 из 16 [2019 HDTVRip] DVO [Kerob] bober100 Скачать
2 | 0
Ходячие мертвецы (The Walking Dead) [ 15.04 GB ] Ходячие мертвецы / The Walking Dead / Сезон: 7 / Серии 1-16 из 16 [2016 WEB-DLRip-AVC] MVO [BaibaKo] GEKADOL Скачать
1 | 0
Ходячие мертвецы (The Walking Dead) [ 38.87 GB ] Ходячие мертвецы / The Walking Dead / Сезон: 7 / Серия: 1-16 из 16 [2016 HDTVRip 720p] [Sub Rus] killermax2013 Скачать
1 | 0
Ходячие мертвецы (The Walking Dead) [ 6.64 GB ] Ходячие мертвецы / The Walking Dead / Сезон: 7 / Серия: 1-12 из 16 [2016-2017 HDTVRip] [MVO] killermax2013 Скачать
1 | 0
Ходячие мертвецы (The Walking Dead) [ 1.96 GB ] Ходячие мертвецы / The Walking Dead / Сезон: 7 / Серия: 1-4 из 16 [2016 HDTVRip-AVC] [Sub RUS] killermax2013 Скачать
1 | 0


Последний раз редактировалось: killermax2013 (2017-04-03 20:51), всего редактировалось 2 раз(а)


>> Регистрируемся здесь <<






Отзывы и комментарии о схеме читаем и пишем здесь: ---> Отзывы и комментарии о схеме

Новые благодарочки в телеграм довольных пользователей:
скриншот   скриншот   скриншот   скриншот   скриншот

12-03-2017 17:34 Ходячие мертвецы Скачать торрент  

а где люди?) первые серии не хотят качатьсяpb.wtf



20-03-2017 18:36 Ходячие мертвецы Скачать торрент  

+13-14pb.wtf



03-04-2017 20:53 Ходячие мертвецы Скачать торрент  

+15-16pb.wtf



03-04-2017 22:06 Ходячие мертвецы Скачать торрент  

killermax2013 писал(а):

Аудио #1: MP3

Цитата:

Format : MPEG Audio
Format version : Version 1
Format profile : Layer 2

ну будущее - это MP2pb.wtf



    Дорогой пользователь! Огромная просьба, поблагодарите релизера, оцените раздачу и оставьте свои комментарий, если Вы скачали Ходячие мертвецы через торрент бесплатно! Внесите свою лепту в развитие PiratBit!
    Комментировать посты могут только пользователи прошедшие не сложную регистрацию
    Показать сообщения:    

    Ходячие мертвецы через торрент
    Скачать бесплатно Ходячие мертвецы
    Ходячие мертвецы скачать торрент
    Ходячие мертвецы смотреть онлайн
    Cкачать фильм Ходячие мертвецы бесплатно
    Ходячие мертвецы скачать торрент в хорошем качестве
    Ходячие мертвецы смотреть онлайн бесплатно в хорошем качестве


    Вы не можете начинать темы
    Вы не можете отвечать на сообщения
    Вы не можете редактировать свои сообщения
    Вы не можете удалять свои сообщения
    Вы не можете голосовать в опросах
    Вы не можете прикреплять файлы к сообщениям
    Вы можете скачивать файлы