2 сезон

iTunes

MVO

1

2 сезон

iTunes

iTunes

1 сезон

RePack

30

Новинка

ВАЖНО

ИГРА 18+

pack

RePack

MK11
pack

Легкие деньги

RePack

jed

RePack

fifa19

RePack

RDR2

RePack

NEED FOR SPEED™ PAYBACK

4 сезон

9 сезон

Бесстыжие 9 сезон

Все сериалы

все сериалы на PB.wtf

RePack

FAR CRY 5

Anonymous, добрый день, мы не успеваем собрать деньги на оплату серверов за декабрь и январь, помогите нам пожалуйста в это трудное время. В качестве благодарности мы отключим Вам всю рекламу на сайте (укажите свой ник в строку Ваше имя)!

×
  
Magnet ссылка

Искатели могил 2 / Grave Encounters 2 (Джон Поликуин ) [2012, ужасы, BDRip 720p / 60fps] Профессиональный [многоголосый] pb.wtf

Искатели могил 2 через торрент pb.wtf

Размер: 6.87 GB | Добавлен: 3 года 10 мес. назад | Торрент скачан:71 раз
Скачать  

06-03-2017 17:52 Искатели могил 2 Скачать торрент  

Искатели могил 2Grave Encounters 2«Вы думали, что фильм закончился - и всё?» Год выпуска: 2012
Страна: Канада, США
Жанр: ужасы
Продолжительность: 01:38:45
Перевод: Профессиональный [многоголосый]
Субтитры: английские
Режиссер: Джон Поликуин
В ролях:
Ричард Хэрмон (Alex Wright), Лиэнн Лэпп (Jennifer Parker), Шон Роджерсон (Sean Rogerson (Lance Preston)), Дилан Плэйфейр (Trevor Thompson), Стефани Беннетт (Tessa Hamill), Хоуи Лаи (Jared Lee), Шон Тайсон (Hospital Security Guard), Бен Уилкинсон (Jerry Hartfield), Артур Корбер (Dr. Friedkin), Бренда МакДональд (Delia Rogerson), Шон С. Филлипс (Vlogger), Дженника Фултон (Vlogger)
Описание:
В руки к режиссёру-юнцу Алексу попадает фильм ужасов «Искатели могил». Кино не производит на него впечатления, но отношение Алекса меняется, когда ему анонимно присылают странный видеоролик, смахивающий на вырезанную сценку из «Искателей». Заинтересовавшись посланием, Алекс пытается найти создателей хитового ужастика.
Рейтинг:

Зрителям, достигшим 18 лет
Премьера (мир): 2 октября 2012
Премьера (РФ): 10 января 2013, «Top Film Distribution»
Качество: BDRip 720p
Формат: MKV
Видео: AVC, 1280x720 (16:9), 8000 kbps, 59,940 fps, 0,145 bpp
Аудио №1: русский / AC3 / 5.1 / 48 kHz / 448 kbps / ||
Аудио №2: английский / DTS / 5.1 / 48 kHz / 1509 kbps / 24 bit
Навигация по главам: есть
General
Unique ID : 234401135693477353519902157274706146409 (0xB05804416867F4EDBB9790CA0DC0F469)
Complete name : Grave.Encounters.2.2012.P.BDRip.720p_60fps.mkv
Format : Matroska
Format version : Version 4 / Version 2
File size : 6.87 GiB
Duration : 1 h 38 min
Overall bit rate : 9 959 kb/s
Encoded date : UTC 2017-03-06 17:02:26
Writing application : mkvmerge v9.8.0 ('Kuglblids') 64bit
Writing library : libebml v1.3.4 + libmatroska v1.4.5

Video
ID : 1
Format : AVC
Format/Info : Advanced Video Codec
Format profile : High@L4.1
Format settings, CABAC : Yes
Format settings, ReFrames : 9 frames
Codec ID : V_MPEG4/ISO/AVC
Duration : 1 h 38 min
Bit rate : 8 000 kb/s
Width : 1 280 pixels
Height : 720 pixels
Display aspect ratio : 16:9
Frame rate mode : Constant
Frame rate : 59.940 (59940/1000) FPS
Color space : YUV
Chroma subsampling : 4:2:0
Bit depth : 8 bits
Scan type : Progressive
Bits/(Pixel*Frame) : 0.145
Stream size : 5.52 GiB (80%)
Writing library : x264 core 146 r2538 121396c
Encoding settings : cabac=1 / ref=9 / deblock=1:-3:-3 / analyse=0x3:0x113 / me=umh / subme=7 / psy=1 / psy_rd=1.00:0.10 / mixed_ref=1 / me_range=32 / chroma_me=1 / trellis=2 / 8x8dct=1 / cqm=0 / deadzone=21,11 / fast_pskip=0 / chroma_qp_offset=-3 / threads=6 / lookahead_threads=1 / sliced_threads=0 / nr=0 / decimate=1 / interlaced=0 / bluray_compat=0 / constrained_intra=0 / bframes=3 / b_pyramid=2 / b_adapt=2 / b_bias=0 / direct=3 / weightb=1 / open_gop=0 / weightp=2 / keyint=250 / keyint_min=25 / scenecut=40 / intra_refresh=0 / rc_lookahead=50 / rc=2pass / mbtree=1 / bitrate=8000 / ratetol=1.0 / qcomp=0.60 / qpmin=0 / qpmax=69 / qpstep=4 / cplxblur=20.0 / qblur=0.5 / vbv_maxrate=50000 / vbv_bufsize=62500 / nal_hrd=none / filler=0 / ip_ratio=1.40 / aq=1:1.00
Language : English
Default : Yes
Forced : No

Audio #1
ID : 2
Format : AC-3
Format/Info : Audio Coding 3
Mode extension : CM (complete main)
Format settings, Endianness : Big
Codec ID : A_AC3
Duration : 1 h 38 min
Bit rate mode : Constant
Bit rate : 448 kb/s
Channel(s) : 6 channels
Channel positions : Front: L C R, Side: L R, LFE
Sampling rate : 48.0 kHz
Frame rate : 31.250 FPS (1536 spf)
Compression mode : Lossy
Stream size : 316 MiB (4%)
Title : DD 5.1 @ 448 kbps - MVO, R5
Language : Russian
Default : Yes
Forced : Yes

Audio #2
ID : 3
Format : DTS
Format/Info : Digital Theater Systems
Mode : 16
Format settings, Endianness : Big
Codec ID : A_DTS
Duration : 1 h 38 min
Bit rate mode : Constant
Bit rate : 1 509 kb/s
Channel(s) : 6 channels
Channel positions : Front: L C R, Side: L R, LFE
Sampling rate : 48.0 kHz
Frame rate : 93.750 FPS (512 spf)
Bit depth : 24 bits
Compression mode : Lossy
Stream size : 1.04 GiB (15%)
Title : DTS 5.1 @ 1536 kbps
Language : English
Default : No
Forced : No

Text
ID : 4
Format : UTF-8
Codec ID : S_TEXT/UTF8
Codec ID/Info : UTF-8 Plain Text
Duration : 1 h 34 min
Bit rate : 59 b/s
Count of elements : 1146
Stream size : 40.7 KiB (0%)
Language : English
Default : No
Forced : No

Menu
00:00:00.000 : en:00:00:00.000
00:08:35.515 : en:00:08:35.515
00:16:28.613 : en:00:16:28.613
00:26:35.677 : en:00:26:35.677
00:33:25.962 : en:00:33:25.962
00:41:33.700 : en:00:41:33.700
00:48:15.851 : en:00:48:15.851
00:54:49.828 : en:00:54:49.828
01:07:29.504 : en:01:07:29.504
01:17:21.220 : en:01:17:21.220
01:25:14.067 : en:01:25:14.067
01:34:02.637 : en:01:34:02.637


Скриншоты pb.wtf



Скачать Искатели могил 2 через торрент http://i89.fastpic.ru/big/2017/0306/97/d993861811cdc2e619d059483adece97.png Скачать фильм Искатели могил 2 через торрент бесплантно в хорошем качестве Описание: В руки к режиссёру-юнцу Алексу попадает фильм ужасов «Искатели могил». Кино не производит на него впечатления, но отношение ... 7.6 10 11
Торрент: Зарегистрирован [2017-03-06 17:52] · скачан: 71 раз
Статус: √ проверено
Размер: 6.87 GB
Как cкачать? Как скачать Искатели могил 2 через торрент | UTorrent

% Раздел Тема Автор DL S | L
Фильмы 2012 [ 1.46 GB ] Искатели могил 2 / Grave Encounters 2 [2012 HDRip лицензия] lev1244v Скачать
1 | 0
Фильмы (Blu-ray, BD-Remux, HDDVD) [ 17.06 GB ] Искатели могил 2 / Grave Encounters 2 [2012 BDRemux] Ворон Скачать
1 | 0
Фильмы (DVD фильмы) [ 4.04 GB ] Искатели могил 2 / Grave Encounters 2 [2012 DVD5] R5 voovaz Скачать
1 | 0

28-11-2019 20:33  

Отключить всю рекламу на сайте

06-03-2017 18:30 Искатели могил 2 Скачать торрент  

Тёлка на 3-ем скрине норм)pb.wtf



06-11-2017 14:59 Искатели могил 2 Скачать торрент  

pb.wtf



06-11-2017 15:01 Искатели могил 2 Скачать торрент  

pb.wtf



    Дорогой пользователь! Огромная просьба, поблагодарите релизера, оцените раздачу и оставьте свои комментарий, если Вы скачали Искатели могил 2 через торрент бесплатно! Внесите свою лепту в развитие PiratBit!
    Комментировать посты могут только пользователи прошедшие не сложную регистрацию
    Показать сообщения:    

    Искатели могил 2 через торрент
    Скачать бесплатно Искатели могил 2
    Искатели могил 2 скачать торрент
    Искатели могил 2 смотреть онлайн
    Cкачать фильм Искатели могил 2 бесплатно
    Искатели могил 2 скачать торрент в хорошем качестве
    Искатели могил 2 смотреть онлайн бесплатно в хорошем качестве


    Вы не можете начинать темы
    Вы не можете отвечать на сообщения
    Вы не можете редактировать свои сообщения
    Вы не можете удалять свои сообщения
    Вы не можете голосовать в опросах
    Вы не можете прикреплять файлы к сообщениям
    Вы можете скачивать файлы