Достать ножи: Стеклянная луковица

MVO

Добыча

Дубляж

Уэнсдэй

1 сезон

Тор

Дубляж

13 клиническая

1 сезон

Жестокая ночь

MVO

Одни из нас

1 сезон

Deluxe

pack

Рекомендуем

30

Пиратка

ВАЖНО

ВАЖНО

Ghostwire

Пиратка

jed

RePack

nioh2

RePack

RDR2

RePack

NEED FOR SPEED™ PAYBACK

RePack

скачать торрент

Кинопоиск HD

Острые козырьки 6 сезон

6 сезон

FAR CRY 6

RePack

скачать торрент

Лицензия

скачать торрент

MVO

1

1 сезон

скачать торрент

1 сезон

скачать торрент

Лицензия

  

Голос монстра / A Monster Calls (Хуан Антонио Байона ) [2016, фэнтези, драма, BD Remux] [Оригинал-ENG]

Голос монстра через торрент pb.wtf

Размер: 19.95 GB | Добавлен: 5 лет 10 мес. назад | Торрент скачан:1 раз
Смотреть онлайн | Скачать | Поддержите нас   

06-03-2017 18:05 Голос монстра Скачать торрент  

Голос монстра / A Monster Calls

Год выпуска: 2016
Страна: США, Испания, Великобритания
Жанр: фэнтези, драма

Продолжительность: 01:48:25
Перевод: Отсутствует [Оригинал-ENG]
Субтитры: испанский, английский
Режиссер: Хуан Антонио Байона
В ролях: Льюис МакДугалл (Conor), Сигурни Уивер (Grandma), Фелисити Джонс (Mum), Тоби Кеббелл (Dad), Бен Моор (Mr. Clark), Джеймс Мелвилл (Harry), Оливер Стир (Sully), Доминик Бойл (Anton), Дженнифер Лим (Miss Kwan), Макс Габбей (Steven), Морган Симес (Lawyer), Max Golds (5-Year-Old Connor)
Описание:
Поражающая воображение история о мальчике Конноре и монстре из его снов. Когда Коннору особенно тяжело, происходит нечто невероятное - старое тисовое дерево за окном оживает и превращается в громадное чудовище. По ночам монстр рассказывает Коннору истории, которые помогут ему понять, что даже когда весь мир рушится, можно найти в себе силы и не отчаиваться.
rating
Качество: BD Remux
Формат: MKV
Видео: AVC, 1920x1080 (16:9), 25842 kbps, 23,976 fps, 0,520 bpp
Аудио: AC3 / 5.1 / 48 kHz / 448 kbps /
Навигация по главам: есть
Семпл
General
Unique ID A.Monster.Calls.2016.REMUX.1080p.AVC.DD5.1-iFT.mkv
Format : Matroska
Format version : Version 4 / Version 2
File size : 19.9 GiB
Duration : 1 h 48 min
Overall bit rate mode : Variable
Overall bit rate : 26.3 Mb/s
Encoded date : UTC 2017-02-08 16:52:48
Writing application : mkvmerge v9.5.0 ('Quiet Fire') 64bit
Writing library : libebml v1.3.4 + libmatroska v1.4.5

Video
ID : 1
Format : AVC
Format/Info : Advanced Video Codec
Format profile : [email protected]
Format settings, CABAC : Yes
Format settings, ReFrames : 4 frames
Format settings, GOP : M=3, N=12
Codec ID : V_MPEG4/ISO/AVC
Duration : 1 h 48 min
Bit rate mode : Variable
Bit rate : 25.8 Mb/s
Maximum bit rate : 33.0 Mb/s
Width : 1 920 pixels
Height : 1 080 pixels
Display aspect ratio : 16:9
Frame rate mode : Constant
Frame rate : 23.976 (24000/1001) FPS
Color space : YUV
Chroma subsampling : 4:2:0
Bit depth : 8 bits
Scan type : Progressive
Bits/(Pixel*Frame) : 0.520
Stream size : 19.6 GiB (98%)
Default : No
Forced : No

Audio
ID : 2
Format : AC-3
Format/Info : Audio Coding 3
Mode extension : CM (complete main)
Format settings, Endianness : Big
Codec ID : A_AC3
Duration : 1 h 48 min
Bit rate mode : Constant
Bit rate : 448 kb/s
Channel(s) : 6 channels
Channel positions : Front: L C R, Side: L R, LFE
Sampling rate : 48.0 kHz
Frame rate : 31.250 FPS (1536 spf)
Compression mode : Lossy
Stream size : 347 MiB (2%)
Default : Yes
Forced : No

Text #1
ID : 3
Format : PGS
Muxing mode : zlib
Codec ID : S_HDMV/PGS
Codec ID/Info : Picture based subtitle format used on BDs/HD-DVDs
Duration : 1 h 38 min
Bit rate : 11.4 kb/s
Count of elements : 1978
Stream size : 8.03 MiB (0%)
Language : Spanish
Default : Yes
Forced : No

Text #2
ID : 4
Format : PGS
Muxing mode : zlib
Codec ID : S_HDMV/PGS
Codec ID/Info : Picture based subtitle format used on BDs/HD-DVDs
Duration : 1 h 38 min
Bit rate : 11.2 kb/s
Count of elements : 1902
Stream size : 7.89 MiB (0%)
Language : English
Default : No
Forced : No

Text #3
ID : 5
Format : PGS
Muxing mode : zlib
Codec ID : S_HDMV/PGS
Codec ID/Info : Picture based subtitle format used on BDs/HD-DVDs
Duration : 1 h 40 min
Bit rate : 26.0 kb/s
Count of elements : 3282
Stream size : 18.7 MiB (0%)
Language : Spanish
Default : No
Forced : No

Menu
00:00:00.000 : en:00:00:00.000
00:08:12.659 : en:00:08:12.659
00:15:35.601 : en:00:15:35.601
00:24:41.480 : en:00:24:41.480
00:31:50.909 : en:00:31:50.909
00:38:50.703 : en:00:38:50.703
00:50:10.925 : en:00:50:10.925
00:55:48.095 : en:00:55:48.095
01:03:51.661 : en:01:03:51.661
01:13:11.679 : en:01:13:11.679
01:19:19.296 : en:01:19:19.296
01:28:52.494 : en:01:28:52.494
01:40:36.030 : en:01:40:36.030



Скачать Голос монстра через торрент http://i1-imageban-ru.translate.goog/out/2017/03/06/c6387afbc02b426b8b9ed2f6073ed264.jpg Скачать, смотреть онлайн Голос монстра бесплантно в хорошем качестве Описание: Поражающая воображение история о мальчике Конноре и монстре из его снов. Когда Коннору особенно тяжело, происходит нечто ... 10 10 2
Info! Золотая раздача, скачанное не засчитывается.
Торрент: Зарегистрирован [2017-03-06 18:05] · скачан: 1 раз
Статус: √ проверено
Размер: 19.95 GB
Как cкачать? Как скачать Голос монстра через торрент | UTorrent

% Раздел Тема Автор DL S | L
Фильмы 2016 [DVDrip, WEB-DLRip, HDrip] (DUB, MVO) [ 1.97 GB ] Голос монстра / A Monster Calls | Лицензия | BDRip-AVC Enigma2010 Скачать
1 | 4
Фильмы [HD 720p, 1080p] (Хороший звук DUB, MVO) [ 4.95 GB ] Голос монстра / A Monster Calls | DUB + AVO + Original + Sub | 720p от _denis_100 | NNNB _denis_100 Скачать
1 | 0
Фильмы [HD 720p, 1080p] (Хороший звук DUB, MVO) [ 9.13 GB ] Голос монстра / A Monster Calls | Лицензия | 1080p bober100 Скачать
1 | 0
Фильмы (Blu-ray, BD-Remux, HDDVD) [ 23.03 GB ] Голос монстра / A Monster Calls | Лицензия | BD Remux 1080p bober100 Скачать
1 | 0
R.G. Resident & PiratVoice - Фильмы, Видео [ 3.3 GB ] Голос монстра / A Monster Calls | Лицензия | 720p от R.G.Resident Хорват Скачать
1 | 0
R.G. Resident & PiratVoice - Фильмы, Видео [ 2.01 GB ] Голос монстра / A Monster Calls | Лицензия | BDRip-AVC от R.G.Resident Хорват Скачать
1 | 0
Фильмы 2016 [DVDrip, WEB-DLRip, HDrip] (DUB, MVO) [ 1.46 GB ] Голос монстра / A Monster Calls | Лицензия | BDRip Twi7ter Скачать
1 | 0

28-11-2019 20:33  


Отключить вcю реклaмy на сайте, в т.ч. и в плеере онлайн просмотра!

    Дорогой пользователь! Огромная просьба, поблагодарите релизера, оцените раздачу и оставьте свои комментарий, если Вы скачали Голос монстра через торрент бесплатно!!
    Комментировать посты могут только пользователи прошедшие не сложную регистрацию
    Показать сообщения:    


    Голос монстра через торрент
    Скачать бесплатно Голос монстра
    Голос монстра скачать торрент
    Голос монстра смотреть онлайн
    Cкачать фильм Голос монстра бесплатно
    Голос монстра скачать торрент в хорошем качестве
    Голос монстра смотреть онлайн бесплатно в хорошем качестве
    Вы не можете начинать темы
    Вы не можете отвечать на сообщения
    Вы не можете редактировать свои сообщения
    Вы не можете удалять свои сообщения
    Вы не можете голосовать в опросах
    Вы не можете прикреплять файлы к сообщениям
    Вы можете скачивать файлы
    Голос монстра / A Monster Calls [2016, фэнтези, драма, BD Remux] [Оригинал-ENG] смотреть онлайн, скачать торрент picoco.icu