Лицензия

MVO

1

1 сезон

Лицензия

Лицензия

13

MVO

1 сезон

Deluxe Edition

pack

Рекомендуем

30

Repack

ВАЖНО

ВАЖНО

Ghostwire

RePack

jed

RePack

fifa19

RePack

RDR2

RePack

NEED FOR SPEED™ PAYBACK

RePack

Кинопоиск HD

 Острые козырьки 6 сезон

6 сезон

FAR CRY 6

RePack

Лицензия

MVO

1

1 сезон

1 сезон

Лицензия

  

Плохой Санта 2 / Bad Santa 2 (Марк Уотерс ) [2016, драма, комедия, криминал, BD Remux] [Оригинал-ENG, Spanish]

Плохой Санта 2 через торрент pb.wtf

Размер: 26.53 GB | Добавлен: 5 лет 6 мес. назад | Торрент скачан:1 раз
Смотреть онлайн Плохой Санта 2 | Скачать   

06-03-2017 19:54 Плохой Санта 2 Скачать торрент  

Плохой Санта 2 / Bad Santa 2

Год выпуска: 2016
Страна: США
Жанр: драма, комедия, криминал
Продолжительность: 01:34:50
Перевод: Отсутствует [Оригинал-ENG, Spanish]
Субтитры: английский, испанский
Режиссер: Марк Уотерс
В ролях: Билли Боб Торнтон (Willie Soke), Кэти Бейтс (Sunny Soke), Тони Кокс (Marcus Skidmore), Кристина Хендрикс (Diane Hastings), Бретт Келли (Thurman Merman), Райан Хансен (Regent Hastings), Дженни Зигрино (Gina De Luca), Джефф Скоурон (Dorfman), Кристина Розато (Alice), Майк Старр (Jolly Santa), Октавия Спенсер (Opal), Рэни Ли (Choirmaster)
Описание:
Продолжение новогодних приключений проходимца Вилли, который в канун Рождества, как всегда, переодевается в Санта-Клауса. Ограбить очередной супермаркет в этом наряде не представляет никаких проблем. Но в Рождество случаются всякие чудеса. Каким оно будет для Вилли на этот раз?
rating
Качество: BD Remux
Формат: MKV
Видео: AVC, 1920x1080 (16:9), 23,976 fps, 36.5 Mbps
Аудио №1: английский / DTS-HD / 5.1 / 1509 kbps / 48 kHz / 24 bit (Core: 5.1 / 48 kHz / 1509 kbps / 24 bit)
Аудио №2: английский / DTS / 5.1 / 48 kHz / 1509 kbps / 24 bit
Аудио №3: испанский / DTS / 5.1 / 48 kHz / 768 kbps / 24 bit
Навигация по главам: есть

General
Unique ID Bad.Santa.2.2016.UNRATED.1080p.BluRay.REMUX.AVC.DTS-HD.MA.5.1-FGT.mkv
Format : Matroska
Format version : Version 4 / Version 2
File size : 26.5 GiB
Duration : 1 h 34 min
Overall bit rate mode : Variable
Overall bit rate : 40.0 Mb/s
Movie name : Bad.Santa.2.2016.UNRATED.1080p.BluRay.REMUX.AVC.DTS-HD.MA.5.1-FGT
Encoded date : UTC 2017-02-14 07:56:50
Writing application : mkvmerge v9.6.0 ('Slave To Your Mind') 64bit
Writing library : libebml v1.3.4 + libmatroska v1.4.5
Cover : Yes
Attachments : small_cover.jpg / small_cover_land.jpg / cover.jpg / cover_land.jpg

Video
ID : 1
Format : AVC
Format/Info : Advanced Video Codec
Format profile : [email protected]
Format settings, CABAC : Yes
Format settings, ReFrames : 4 frames
Codec ID : V_MPEG4/ISO/AVC
Duration : 1 h 34 min
Bit rate mode : Variable
Maximum bit rate : 36.5 Mb/s
Width : 1 920 pixels
Height : 1 080 pixels
Display aspect ratio : 16:9
Frame rate mode : Constant
Frame rate : 23.976 (24000/1001) FPS
Color space : YUV
Chroma subsampling : 4:2:0
Bit depth : 8 bits
Scan type : Progressive
Title : Bad.Santa.2.2016.UNRATED.1080p.BluRay.REMUX.AVC.DTS-HD.MA.5.1-FGT
Language : English
Default : No
Forced : No

Audio #1
ID : 2
Format : DTS
Format/Info : Digital Theater Systems
Format profile : MA / Core
Mode : 16
Format settings, Endianness : Big
Codec ID : A_DTS
Duration : 1 h 34 min
Bit rate mode : Variable / Constant
Bit rate : Unknown / 1 509 kb/s
Channel(s) : 6 channels
Channel positions : Front: L C R, Side: L R, LFE
Sampling rate : 48.0 kHz
Frame rate : 93.750 FPS (512 spf)
Bit depth : 24 bits
Compression mode : Lossless / Lossy
Title : Bad.Santa.2.2016.UNRATED.1080p.BluRay.REMUX.AVC.DTS-HD.MA.5.1-FGT
Language : English
Default : Yes
Forced : No

Audio #2
ID : 3
Format : DTS
Format/Info : Digital Theater Systems
Mode : 16
Format settings, Endianness : Big
Codec ID : A_DTS
Duration : 1 h 34 min
Bit rate mode : Constant
Bit rate : 1 509 kb/s
Channel(s) : 6 channels
Channel positions : Front: L C R, Side: L R, LFE
Sampling rate : 48.0 kHz
Frame rate : 93.750 FPS (512 spf)
Bit depth : 24 bits
Compression mode : Lossy
Stream size : 1 024 MiB (4%)
Title : Bad.Santa.2.2016.UNRATED.1080p.BluRay.REMUX.AVC.DTS-HD.MA.5.1-FGT
Language : English
Default : No
Forced : No

Audio #3
ID : 4
Format : DTS
Format/Info : Digital Theater Systems
Mode : 16
Format settings, Endianness : Big
Codec ID : A_DTS
Duration : 1 h 34 min
Bit rate mode : Constant
Bit rate : 768 kb/s
Channel(s) : 6 channels
Channel positions : Front: L C R, Side: L R, LFE
Sampling rate : 48.0 kHz
Frame rate : 93.750 FPS (512 spf)
Bit depth : 24 bits
Compression mode : Lossy
Stream size : 521 MiB (2%)
Title : Bad.Santa.2.2016.UNRATED.1080p.BluRay.REMUX.AVC.DTS-HD.MA.5.1-FGT
Language : Spanish
Default : No
Forced : No

Text #1
ID : 5
Format : PGS
Muxing mode : zlib
Codec ID : S_HDMV/PGS
Codec ID/Info : Picture based subtitle format used on BDs/HD-DVDs
Title : English-PGS
Language : English
Default : Yes
Forced : No

Text #2
ID : 6
Format : PGS
Muxing mode : zlib
Codec ID : S_HDMV/PGS
Codec ID/Info : Picture based subtitle format used on BDs/HD-DVDs
Title : Spanish-PGS
Language : Spanish
Default : No
Forced : No

Menu
00:00:00.000 : en:Chapter 01
00:05:53.227 : en:Chapter 02
00:11:00.743 : en:Chapter 03
00:16:22.856 : en:Chapter 04
00:20:14.213 : en:Chapter 05
00:25:34.699 : en:Chapter 06
00:29:40.445 : en:Chapter 07
00:33:51.362 : en:Chapter 08
00:36:57.131 : en:Chapter 09
00:41:20.019 : en:Chapter 10
00:44:49.812 : en:Chapter 11
00:52:09.334 : en:Chapter 12
01:00:33.546 : en:Chapter 13
01:05:54.158 : en:Chapter 14
01:13:17.976 : en:Chapter 15
01:17:48.497 : en:Chapter 16
01:21:58.204 : en:Chapter 17
01:25:43.221 : en:Chapter 18



Скачать Плохой Санта 2 через торрент http://i4-imageban-ru.translate.goog/out/2017/03/06/d5cf997ea199098f23889671e84420d6.jpg Скачать, смотреть онлайн Плохой Санта 2 бесплантно в хорошем качестве Описание: Продолжение новогодних приключений проходимца Вилли, который в канун Рождества, как всегда, переодевается в Санта-Клауса. ... 10 10 2
Info! Золотая раздача, скачанное не засчитывается.
Торрент: Зарегистрирован [2017-03-06 19:54] · скачан: 1 раз
Статус: √ проверено
Размер: 26.53 GB
Как cкачать? Как скачать Плохой Санта 2 через торрент | UTorrent

% Раздел Тема Автор DL S | L
Ultra HD (UHD: 2K, 4K, 8K) [ 27.75 GB ] Плохой Санта 2 / Bad Santa 2 | iTunes | 2160p bober100 Скачать
1 | 0
Фильмы 2016 [DVDrip, WEB-DLRip, HDrip] (DUB, MVO) [ 1.42 GB ] Плохой Санта 2 / Bad Santa 2 | Лицензия | BDRip от Twi7ter Twi7ter Скачать
1 | 0
Фильмы 2016 [DVDrip, WEB-DLRip, HDrip] (DUB, MVO) [ 1.42 GB ] Плохой Санта 2 / Bad Santa 2 | Лицензия | BDRip от Twi7ter Twi7ter Скачать
1 | 0
R.G. Resident & PiratVoice - Фильмы, Видео [ 2.37 GB ] Плохой Санта 2 / Bad Santa 2 | Лицензия | BDRip-AVC от R.G.Resident Хорват Скачать
1 | 0
Фильмы 2016 [DVDrip, WEB-DLRip, HDrip] (DUB, MVO) [ 1.37 GB ] Плохой Санта 2 / Bad Santa 2 | iTunes | DLRip Ворон Скачать
1 | 0
Фильмы (WEB-DL 720p, 1080p) [ 3.8 GB ] Плохой Санта 2 / Bad Santa 2 | DUB | 1080p killermax2013 Скачать
2 | 0
T Фильмы 2016 [DVDrip, WEB-DLRip, HDrip] (DUB, MVO) [ 740 MB ] Плохой Санта 2 Гоблин / Bad Santa 2 | AVO | DLRip sheker187 Скачать
1 | 0

28-11-2019 20:33  

Отключить вcю реклaмy на сайте

    Дорогой пользователь! Огромная просьба, поблагодарите релизера, оцените раздачу и оставьте свои комментарий, если Вы скачали Плохой Санта 2 через торрент бесплатно!!
    Комментировать посты могут только пользователи прошедшие не сложную регистрацию
    Показать сообщения:    


    Плохой Санта 2 через торрент
    Скачать бесплатно Плохой Санта 2
    Плохой Санта 2 скачать торрент
    Плохой Санта 2 смотреть онлайн
    Cкачать фильм Плохой Санта 2 бесплатно
    Плохой Санта 2 скачать торрент в хорошем качестве
    Плохой Санта 2 смотреть онлайн бесплатно в хорошем качестве
    Вы не можете начинать темы
    Вы не можете отвечать на сообщения
    Вы не можете редактировать свои сообщения
    Вы не можете удалять свои сообщения
    Вы не можете голосовать в опросах
    Вы не можете прикреплять файлы к сообщениям
    Вы можете скачивать файлы