1 сезон

3 сезон

iTunes

1

Line

MVO

iTunes

13

1 сезон

RePack

30

Deluxe

pack

Лицензия

ВАЖНО

ИГРА 18+

pack

RePack

MK11

RePack

jed

RePack

fifa19

RePack

RDR2

RePack

NEED FOR SPEED™ PAYBACK

4 сезон

9 сезон

Бесстыжие 9 сезон

Все сериалы

все сериалы на PB.wtf

RePack

FAR CRY 5

Anonymous, доброй ночи, мы катастрофически не успеваем собрать деньги на оплату серверов, помогите нам пожалуйста 5,10,15р., для нас важна любая помощь . В качестве благодарности мы отключим Вам всю рекламу на сайте (укажите свой ник в строку Ваше имя)!

×
  
Magnet ссылка

Голос монстра / A Monster Calls (Хуан Антонио Байона) [2016, фэнтези, драма, BDRip 720p от R.G.Resident] Дубляж - [Лицензия / iTunes] pb.wtf

Голос монстра через торрент pb.wtf

Размер: 3.3 GB | Добавлен: 4 года 4 мес. назад | Торрент скачан:326 раз
Скачать  

07-03-2017 03:12 Голос монстра Скачать торрент  

Голос монстра / A Monster Calls
««Stories are wild creatures»»

Год выпуска: 2016
Страна: США, Испания, Великобритания
Жанр: фэнтези, драма
Продолжительность: 01:48:25
Перевод: Дубляж - [Лицензия / iTunes]
Субтитры: русские (full), английские (full)
Режиссер: Хуан Антонио Байона
В ролях:

Льюис МакДугалл (Conor), Сигурни Уивер (Grandma), Фелисити Джонс (Mum), Тоби Кеббелл (Dad), Бен Моор (Mr. Clark), Джеймс Мелвилл (Harry), Оливер Стир (Sully), Доминик Бойл (Anton), Дженнифер Лим (Miss Kwan), Макс Габбей (Steven), Морган Симес (Lawyer), Max Golds (5-Year-Old Connor)
Описание:
Поражающая воображение история о мальчике Конноре и монстре из его снов. Когда Коннору особенно тяжело, происходит нечто невероятное - старое тисовое дерево за окном оживает и превращается в громадное чудовище. По ночам монстр рассказывает Коннору истории, которые помогут ему понять, что даже когда весь мир рушится, можно найти в себе силы и не отчаиваться.
Мировая премьера: 9 сентября 2016

MPAA: PG-13 - Детям до 13 лет просмотр не желателен
Качество: BDRip 720p Rip by
Формат: MKV
Видео: AVC, 1280x536 (2.40:1), 3523 kbps, 23,976 fps, 0,214 bpp
Аудио №1: русский / AC3 / 5.1 / 48 kHz / 384 kbps /
Аудио №2: английский / AC3 / 5.1 / 48 kHz / 448 kbps /
x264 [info]: frame I:1051 Avg QP:11.98 size:119008
x264 [info]: frame P:33122 Avg QP:15.37 size: 36548
x264 [info]: frame B:121804 Avg QP:16.55 size: 12518

General
Unique ID : 204304066620488796513648040160130302445 (0x99B3882EF4027F53969629DB89A501ED)
Complete name : D:\download\A.Monster.Calls.2016.BDRip 720р by schultz R.G.Resident.mkv
Format : Matroska
Format version : Version 4 / Version 2
File size : 3.30 GiB
Duration : 1 h 48 min
Overall bit rate : 4 352 kb/s
Encoded date : UTC 2017-03-07 02:43:44
Writing application : mkvmerge v8.9.0 ('Father Daughter') 64bit
Writing library : libebml v1.3.3 + libmatroska v1.4.4

Video
ID : 1
Format : AVC
Format/Info : Advanced Video Codec
Format profile : High@L4.1
Format settings, CABAC : Yes
Format settings, ReFrames : 12 frames
Codec ID : V_MPEG4/ISO/AVC
Duration : 1 h 48 min
Bit rate : 3 523 kb/s
Width : 1 280 pixels
Height : 536 pixels
Display aspect ratio : 2.40:1
Frame rate mode : Constant
Frame rate : 23.976 (23976/1000) FPS
Color space : YUV
Chroma subsampling : 4:2:0
Bit depth : 8 bits
Scan type : Progressive
Bits/(Pixel*Frame) : 0.214
Stream size : 2.66 GiB (81%)
Writing library : x264 core 146 r2538 121396c
Encoding settings : cabac=1 / ref=12 / deblock=1:-3:-3 / analyse=0x3:0x113 / me=umh / subme=11 / psy=1 / psy_rd=1.00:0.00 / mixed_ref=1 / me_range=48 / chroma_me=1 / trellis=2 / 8x8dct=1 / cqm=0 / deadzone=21,11 / fast_pskip=0 / chroma_qp_offset=-2 / threads=12 / lookahead_threads=3 / sliced_threads=0 / nr=0 / decimate=0 / interlaced=0 / bluray_compat=0 / constrained_intra=0 / bframes=11 / b_pyramid=2 / b_adapt=2 / b_bias=0 / direct=3 / weightb=1 / open_gop=0 / weightp=2 / keyint=240 / keyint_min=23 / scenecut=40 / intra_refresh=0 / rc_lookahead=40 / rc=2pass / mbtree=1 / bitrate=3523 / ratetol=1.0 / qcomp=0.60 / qpmin=0 / qpmax=69 / qpstep=4 / cplxblur=20.0 / qblur=0.5 / vbv_maxrate=50000 / vbv_bufsize=62500 / nal_hrd=none / filler=0 / ip_ratio=1.40 / aq=1:1.00
Language : English
Default : Yes
Forced : No

Audio #1
ID : 2
Format : AC-3
Format/Info : Audio Coding 3
Mode extension : CM (complete main)
Format settings, Endianness : Big
Codec ID : A_AC3
Duration : 1 h 48 min
Bit rate mode : Constant
Bit rate : 384 kb/s
Channel(s) : 6 channels
Channel positions : Front: L C R, Side: L R, LFE
Sampling rate : 48.0 kHz
Frame rate : 31.250 FPS (1536 spf)
Compression mode : Lossy
Stream size : 298 MiB (9%)
Language : Russian
Default : Yes
Forced : No

Audio #2
ID : 3
Format : AC-3
Format/Info : Audio Coding 3
Mode extension : CM (complete main)
Format settings, Endianness : Big
Codec ID : A_AC3
Duration : 1 h 48 min
Bit rate mode : Constant
Bit rate : 448 kb/s
Channel(s) : 6 channels
Channel positions : Front: L C R, Side: L R, LFE
Sampling rate : 48.0 kHz
Frame rate : 31.250 FPS (1536 spf)
Compression mode : Lossy
Stream size : 347 MiB (10%)
Language : English
Default : No
Forced : No

Text #1
ID : 4
Format : UTF-8
Codec ID : S_TEXT/UTF8
Codec ID/Info : UTF-8 Plain Text
Duration : 1 h 39 min
Bit rate : 66 b/s
Count of elements : 889
Stream size : 48.1 KiB (0%)
Title : full
Language : Russian
Default : No
Forced : No

Text #2
ID : 5
Format : UTF-8
Codec ID : S_TEXT/UTF8
Codec ID/Info : UTF-8 Plain Text
Duration : 1 h 38 min
Bit rate : 38 b/s
Count of elements : 926
Stream size : 28.2 KiB (0%)
Title : full
Language : English
Default : No
Forced : No

Menu
00:00:00.000 : es:Chapter 01
00:08:12.617 : es:Chapter 02
00:15:35.517 : es:Chapter 03
00:24:41.313 : es:Chapter 04
00:31:50.575 : es:Chapter 05
00:38:50.619 : es:Chapter 06
00:50:10.966 : es:Chapter 07
00:55:48.678 : es:Chapter 08
01:03:51.369 : es:Chapter 09
01:13:11.678 : es:Chapter 10
01:19:19.254 : es:Chapter 11
01:28:52.285 : es:Chapter 12
01:40:35.654 : es:Chapter 13

pb.wtf



Скачать Голос монстра через торрент http://i77.fastpic.ru/big/2016/0417/a7/808a646271c761f7c7d87df3d366b3a7.png Скачать фильм Голос монстра через торрент бесплантно в хорошем качестве Описание: Поражающая воображение история о мальчике Конноре и монстре из его снов. Когда Коннору особенно тяжело, происходит нечто ... 9.3 10 12
Info! Золотая раздача, скачанное не засчитывается.
Торрент: Зарегистрирован [2017-03-07 03:12] · скачан: 326 раз
Статус: √ проверено
Размер: 3.3 GB
Как cкачать? Как скачать Голос монстра через торрент | UTorrent

% Раздел Тема Автор DL S | L
Фильмы 2016 [DVDrip, WEB-DLRip, HDrip] (DUB, MVO) [ 1.97 GB ] Голос монстра / A Monster Calls [2016 BDRip-AVC] - [] от ExKinoRay Enigma2010 Скачать
1 | 0
Фильмы [HD 720p, 1080p] (Хороший звук DUB, MVO) [ 4.95 GB ] Голос монстра / A Monster Calls [2016 BDRip 720p от _denis_100 | NNNB] DUB + AVO + Original + Sub _denis_100 Скачать
1 | 0
Фильмы [HD 720p, 1080p] (Хороший звук DUB, MVO) [ 9.13 GB ] Голос монстра / A Monster Calls [2016 BDRip 1080p] DUB [] bober100 Скачать
1 | 0
Фильмы (Blu-ray, BD-Remux, HDDVD) [ 23.03 GB ] Голос монстра / A Monster Calls [2016 BD Remux 1080p] DUB [US Transfer] [] bober100 Скачать
1 | 0
R.G. Resident & PiratVoice - Фильмы, Видео [ 2.01 GB ] Голос монстра / A Monster Calls [2016 BDRip-AVC ] - schultz Скачать
1 | 0
Фильмы 2016 [DVDrip, WEB-DLRip, HDrip] (DUB, MVO) [ 1.46 GB ] Голос монстра / A Monster Calls [2016 BDRip] - [] Twi7ter Скачать
1 | 0
Фильмы без перевода [ 19.95 GB ] Голос монстра / A Monster Calls [2016 BD Remux] [Оригинал-ENG] smaster Скачать
1 | 0

28-11-2019 20:33  

Отключить всю рекламу на сайте

    Дорогой пользователь! Огромная просьба, поблагодарите релизера, оцените раздачу и оставьте свои комментарий, если Вы скачали Голос монстра через торрент бесплатно! Внесите свою лепту в развитие PiratBit!
    Комментировать посты могут только пользователи прошедшие не сложную регистрацию
    Показать сообщения:    

    Голос монстра через торрент
    Скачать бесплатно Голос монстра
    Голос монстра скачать торрент
    Голос монстра смотреть онлайн
    Cкачать фильм Голос монстра бесплатно
    Голос монстра скачать торрент в хорошем качестве
    Голос монстра смотреть онлайн бесплатно в хорошем качестве


    Вы не можете начинать темы
    Вы не можете отвечать на сообщения
    Вы не можете редактировать свои сообщения
    Вы не можете удалять свои сообщения
    Вы не можете голосовать в опросах
    Вы не можете прикреплять файлы к сообщениям
    Вы можете скачивать файлы