Ссылка на приватное зеркало нашего сайта всего за 1$. Внимание количество ограничено!!!

2 сезон

iTunes

1 сезон

1

2 сезон

2 сезон

iTunes

1 сезон

RePack

30

Новинка

ВАЖНО

ИГРА 18+

pack

RePack

MK11
pack

Забери бонус

RePack

jed

!!Акция!!

Alien_Rage

RePack

fifa19

RePack

Assassins Creed: Odyssey

RePack

NEED FOR SPEED™ PAYBACK

4 сезон

9 сезон

Бесстыжие 9 сезон

Все сериалы

все сериалы на PB.wtf

RePack

FAR CRY 5
  

Эпоха за эпохой / Time After Time / Сезон: 1 / Серии 1-12 из 12 (Маркос Сига / Marcos Siega, Стив Шилл / Steve Shill, Майкл А. Алловиц / Michael A. Allowitz) [2017 , США, фантастика, драма, WEB-DLRip-AVC, WEBRip-AVC] MVO [BaibaKo] pb.wtf

Эпоха за эпохой через торрент pb.wtf

Размер: 9.35 GB | Добавлен: 3 года 4 мес. назад | Торрент скачан:22 раза
Скачать  

07-03-2017 07:16 Эпоха за эпохой Скачать торрент  

Эпоха за эпохой / Time After Time


  • Год выпуска: 2017
  • Страна: США
  • Жанр: фантастика, драма
  • Продолжительность: 00:41:30 (Серия)
  • Перевод: Профессиональный многоголосый [BaibaKo]
  • Режиссер: Маркос Сига / Marcos Siega, Стив Шилл / Steve Shill, Майкл А. Алловиц / Michael A. Allowitz
  • В ролях:

    Уилл Чейз (Griffin Monroe), Эллиотт Виллар (Doug Lawson), Omar Maskati (Martin), Бен Левин (Leon), Кейлин Джонс (Alex), Jonathan Mielec (Nick), Фредди Строма, Marlene Ginader (TV News Reporter), Куррат Анн Кадвани (Newscaster), Дженезис Родригез (Jane Walker), Калисва Брюстер (Agent Danielle Forbes), Джереми Дэш (Billy)


  • Сериал расскажет о приключениях молодого писателя Герберта Уэллса, который изобретает машину времени. Он еще не успел её испытать, но за него это сделал Джек-Потрошитель, скрывающийся от полиции. Уэллс, убеждённый, что в будущем наступит утопия, не будет войн и преступности, решает отправиться вслед за ним, чтобы помешать кровавому маньяку сеять хаос.
  • Рейтинг:



  • Качество: WEB-DLRip-AVC, WEBRip-AVC
  • Формат: :MPEG-4
  • Видео кодек: AVC
  • Аудио кодек: AC3
  • Видео: 2000 Кбит/сек, 1024*576 (16:9), в 24,000 кадра/сек, AVC
  • Аудио №1: русский 384 Кбит/сек, 48,0 КГц, 16 бит, 6 каналов, AC-3 |[BaibaKo]|
  • Аудио №2: английский 384 Кбит/сек, 48,0 КГц, 16 бит, 6 каналов, AC-3
  • Релиз от: GEKADOL

    Внимание! Раздача ведётся путём добавления новых серий; при каждом добавлении создаётся новый торрент. Чтобы начать докачку новой серии, пользователям необходимо сделать следующее:
    (1) остановить скачивание,
    (2) удалить старый торрент у себя из клиента (старые серии удалять не надо),
    (3) скачать новый торрент и запустить его у себя в клиенте вместо старого, при этом указать клиенту путь в старую папку куда и должно происходить скачивание новых серий.
    Ваш клиент при этом должен произвести хеширование (проверку) старой папки (если не производит сам - помогите ему сделать это), и будет докачивать только те серии которых у вас ещё нет. Старые серии при этом не удаляются, а продолжают раздаваться!
    Eсли вы уже удалили старые серии, то предотвратить повторную закачку старых серий можно, отжав галочку в соответствующих местах при запуске нового торрента. По возможности, желательно не удалять старые серии как можно дольше чтобы релизёр не столько продолжал раздавать старые серии, а смог сконцентрироваться на новых.

    Общее
    Полное имя : H:\Эпоха за эпохой (Time After Time)\Time.After.Time.s01e03.WEB-DLRip-AVC.Rus.Eng.BaibaKo.tv.mp4
    Формат : MPEG-4
    Профиль формата : Base Media
    Идентификатор кодека : isom (isom/iso2/avc1/mp41)
    Размер файла : 824 Мбайт
    Продолжительность : 41 м. 30 с.
    Общий поток : 2774 Кбит/сек
    Программа кодирования : XviD4PSP 7.0.366 DAILY
    HDVideo : Yes
    encoding_info : MATROSKA / WEBM > MP4 Произвольный / H264 > X264 CBR 2000kbps HQ / AC3 > AC3 CBR 384kbps / AC3 > AC3 CBR 384kbps

    Видео
    Идентификатор : 1
    Формат : AVC
    Формат/Информация : Advanced Video Codec
    Профиль формата : High@L4.1
    Параметр CABAC формата : Да
    Параметр ReFrames формата : 4 кадра
    Идентификатор кодека : avc1
    Идентификатор кодека/Информация : Advanced Video Coding
    Продолжительность : 41 м. 30 с.
    Битрейт : 2000 Кбит/сек
    Ширина : 1024 пикселя
    Высота : 576 пикселей
    Соотношение сторон : 16:9
    Режим частоты кадров : Постоянный
    Частота кадров : 24,000 кадра/сек
    Цветовое пространство : YUV
    Субдискретизация насыщенности : 4:2:0
    Битовая глубина : 8 бит
    Тип развёртки : Прогрессивная
    Бит/(Пиксели*Кадры) : 0.141
    Размер потока : 594 Мбайт (72%)
    Библиотека кодирования : x264 core 148 r2762M 90a61ec
    Настройки программы : cabac=1 / ref=3 / deblock=1:-1:-1 / analyse=0x3:0x133 / me=hex / subme=7 / psy=1 / psy_rd=1.00:0.20 / mixed_ref=1 / me_range=16 / chroma_me=1 / trellis=1 / 8x8dct=1 / cqm=0 / deadzone=21,11 / fast_pskip=1 / chroma_qp_offset=-3 / threads=5 / lookahead_threads=1 / sliced_threads=0 / nr=0 / decimate=1 / interlaced=0 / bluray_compat=0 / constrained_intra=0 / bframes=3 / b_pyramid=2 / b_adapt=2 / b_bias=0 / direct=3 / weightb=1 / open_gop=0 / weightp=2 / keyint=240 / keyint_min=24 / scenecut=40 / intra_refresh=0 / rc_lookahead=40 / rc=cbr / mbtree=1 / bitrate=2000 / ratetol=1.0 / qcomp=0.60 / qpmin=0 / qpmax=69 / qpstep=4 / vbv_maxrate=2000 / vbv_bufsize=30000 / nal_hrd=none / filler=0 / ip_ratio=1.40 / aq=1:1.00

    Аудио #1
    Идентификатор : 2
    Формат : AC-3
    Формат/Информация : Audio Coding 3
    Расширение режима : CM (complete main)
    Параметр Endianness формата : Big
    Идентификатор кодека : ac-3
    Продолжительность : 41 м. 30 с.
    Вид битрейта : Постоянный
    Битрейт : 384 Кбит/сек
    Каналы : 6 каналов
    Расположение каналов : Front: L C R, Side: L R, LFE
    Частота : 48,0 КГц
    Частота кадров : 31,250 кадров/сек (1536 spf)
    Битовая глубина : 16 бит
    Метод сжатия : С потерями
    Размер потока : 114 Мбайт (14%)
    Язык : Russian
    Default : Да
    Alternate group : 1

    Аудио #2
    Идентификатор : 3
    Формат : AC-3
    Формат/Информация : Audio Coding 3
    Расширение режима : CM (complete main)
    Параметр Endianness формата : Big
    Идентификатор кодека : ac-3
    Продолжительность : 41 м. 30 с.
    Вид битрейта : Постоянный
    Битрейт : 384 Кбит/сек
    Каналы : 6 каналов
    Расположение каналов : Front: L C R, Side: L R, LFE
    Частота : 48,0 КГц
    Частота кадров : 31,250 кадров/сек (1536 spf)
    Битовая глубина : 16 бит
    Метод сжатия : С потерями
    Размер потока : 114 Мбайт (14%)
    Язык : English
    Default : Нет
    Alternate group : 1



    Скриншоты:
    скриншот   скриншот   скриншот   скриншот   скриншот   скриншот   скриншот  
    скриншот  

    Раздача ведётся путём добавления новых серий. Добавлена 12 серия (01.07.2017).Просьба перекачать торрент файл.

    pb.wtf



  • Скачать Эпоха за эпохой через торрент http://i89.fastpic.ru/big/2017/0307/a8/3b670f480f78e1d1be1e79f1008e43a8.jpg Скачать фильм Эпоха за эпохой через торрент бесплантно в хорошем качестве qw.png Сериал расскажет о приключениях молодого писателя Герберта Уэллса, который изобретает машину времени. Он еще не успел её испытать, ... 9.8 10 5
    Info! Золотая раздача, скачанное не засчитывается.
    Торрент: Зарегистрирован [2017-07-01 05:25] · скачан: 22 раз
    Статус: √ проверено
    Размер: 9.35 GB
    Как cкачать? Как скачать Эпоха за эпохой через торрент | qTorrent

    % Раздел Тема Автор DL S | L
    Зарубежные сериалы [ 38.54 GB ] Эпоха за эпохой / Time After Time / Сезон: 1 / Серии: 1-12 из 12 [2017 WEBRip 1080p] MVO [TVShows] bober100 Скачать
    1 | 0
    Зарубежные сериалы [ 7.02 GB ] Эпоха за эпохой / Time After Time / Сезон 1 / Серии 1-12 из 12 [2017 WEB-DLRip WEBRip] MVO [BaibaKo] bober100 Скачать
    1 | 0


    Последний раз редактировалось: GEKADOL (2017-07-01 05:25), всего редактировалось 6 раз(а)

    28-11-2019 20:33  

    Отключить всю рекламу на сайте

    22-03-2017 01:12 Эпоха за эпохой Скачать торрент  

    спс за раздачу! сериал не ахти! тягомотины много! бла-бла-бла.... так сказатьpb.wtf



      Дорогой пользователь! Огромная просьба, поблагодарите релизера, оцените раздачу и оставьте свои комментарий, если Вы скачали Эпоха за эпохой через торрент бесплатно! Внесите свою лепту в развитие PiratBit!
      Комментировать посты могут только пользователи прошедшие не сложную регистрацию
      Показать сообщения:    

      Эпоха за эпохой через торрент
      Скачать бесплатно Эпоха за эпохой
      Эпоха за эпохой скачать торрент
      Эпоха за эпохой смотреть онлайн
      Cкачать фильм Эпоха за эпохой бесплатно
      Эпоха за эпохой скачать торрент в хорошем качестве
      Эпоха за эпохой смотреть онлайн бесплатно в хорошем качестве


      Вы не можете начинать темы
      Вы не можете отвечать на сообщения
      Вы не можете редактировать свои сообщения
      Вы не можете удалять свои сообщения
      Вы не можете голосовать в опросах
      Вы не можете прикреплять файлы к сообщениям
      Вы можете скачивать файлы