Ссылка на приватное зеркало нашего сайта всего за 1$. Внимание количество ограничено!!!

2 сезон

iTunes

1 сезон

1

2 сезон

2 сезон

iTunes

1 сезон

RePack

30

Ultimate

ВАЖНО

ИГРА 18+

pack

RePack

MK11
pack

Забери бонус

RePack

jed

!!Акция!!

Alien_Rage

RePack

fifa19

RePack

Assassins Creed: Odyssey

RePack

NEED FOR SPEED™ PAYBACK

4 сезон

9 сезон

Бесстыжие 9 сезон

Все сериалы

все сериалы на PB.wtf

RePack

FAR CRY 5
  

В розыске / Сигнал всем постам / A.P.B. / Сезон 1 / Серии 1-12 из 12 (Дуан Кларк, Джеффри Дж. Хант, Эми Канаан Манн) [2017, Драма, криминал, WEBRip 1080p] [MVO] (Jaskier) pb.wtf

В розыске через торрент pb.wtf

Размер: 39.73 GB | Добавлен: 3 года 6 мес. назад | Торрент скачан:5 раз
Скачать  

07-03-2017 11:06 В розыске Скачать торрент  

В розыскеA.P.B.

Год выпуска: 2017
Страна: США
Жанр: Драма, криминал
Продолжительность: 00:43:00
Перевод: Профессиональный (многоголосый закадровый) | Jaskier

Режиссёр: Дуан Кларк, Джеффри Дж. Хант, Эми Канаан Манн

В ролях: Джастин Кирк, Натали Мартинес, Кэйтлин Стэйси, Уильям Смайли, Адам Менджеринк, Алекс Зеленка, Ральф Аббас

Описание: Сериал «A.P.B.» исследует, что происходит, когда сталкиваются два мира – эксцентричного богача и прожжённых профессионалов. Местом действия является проблемный полицейский участок, работой которого не довольны ни начальство копов, ни их контингент. Ситуация принимает другой оборот после смерти на землях, находящихся в юрисдикции участка, человека, очень близкого одному загадочному современному миллиардеру. Богач скупает территорию и фактически становится хозяином полицейского учреждения. Сможет ли эта передовая таинственная и могущественная фигура как-то исправить ветеранов проблемного участка?



Качество: WEBRip 1080p
Формат: MKV
Видео: AVC, 1920x1080 (16:9), 23.976 fps, ~12.0 Mb/s, ~0.241 bit/pixel
Аудио Rus.: AC3, 48 kHz, 6 ch, 384 kbps
Аудио Eng.: E-AC3, 48 kHz, 6 ch, 640 kbps
Субтитры: английские
General
Unique ID                   : 172262008445426215583591509635111017594 (0x819874BEADDE7BCDA33FE2CC711F5C7A)
Complete name               : F:\Movies\Сериалы\A.P.B.. Season 1 (WEBRip l 1080p l Jaskier)\APB.S01E01.1080p.WEBRip.Jaskier.Rus.Eng.mkv
Format                      : Matroska
Format version              : Version 4 / Version 2
File size                   : 4.22 GiB
Duration                    : 46 min 26 s
Overall bit rate            : 13.0 Mb/s
Encoded date                : UTC 2017-02-19 05:17:41
Writing application         : mkvmerge v7.8.0 ('River Man') 64bit built on Mar 27 2015 16:31:37
Writing library             : libebml v1.3.1 + libmatroska v1.4.2
Encoded/Released by         : o
Group                       : ViSUM
Video
ID                          : 1
Format                      : AVC
Format/Info                 : Advanced Video Codec
Format profile              : High@L4.1
Format settings, CABAC      : Yes
Format settings, ReFrames   : 4 frames
Codec ID                    : V_MPEG4/ISO/AVC
Duration                    : 46 min 26 s
Bit rate                    : 12.0 Mb/s
Width                       : 1 920 pixels
Height                      : 1 080 pixels
Display aspect ratio        : 16:9
Frame rate mode             : Constant
Frame rate                  : 23.976 (24000/1001) FPS
Color space                 : YUV
Chroma subsampling          : 4:2:0
Bit depth                   : 8 bits
Scan type                   : Progressive
Bits/(Pixel*Frame)          : 0.241
Stream size                 : 3.89 GiB (92%)
Writing library             : x264 core 148 r2638 7599210
Encoding settings           : cabac=1 / ref=4 / deblock=1:-3:-3 / analyse=0x3:0x133 / me=umh / subme=10 / psy=1 / psy_rd=1.00:0.00 / mixed_ref=1 / me_range=48 / chroma_me=1 / trellis=2 / 8x8dct=1 / cqm=0 / deadzone=21,11 / fast_pskip=1 / chroma_qp_offset=-2 / threads=24 / lookahead_threads=4 / sliced_threads=0 / nr=0 / decimate=0 / interlaced=0 / bluray_compat=0 / constrained_intra=0 / bframes=8 / b_pyramid=2 / b_adapt=2 / b_bias=0 / direct=3 / weightb=1 / open_gop=0 / weightp=2 / keyint=240 / keyint_min=23 / scenecut=40 / intra_refresh=0 / rc=crf / mbtree=0 / crf=16.0 / qcomp=0.60 / qpmin=0 / qpmax=69 / qpstep=4 / ip_ratio=1.30 / pb_ratio=1.20 / aq=1:0.70
Default                     : Yes
Forced                      : No
Audio #1
ID                          : 2
Format                      : AC-3
Format/Info                 : Audio Coding 3
Mode extension              : CM (complete main)
Format settings, Endianness : Big
Codec ID                    : A_AC3
Duration                    : 46 min 26 s
Bit rate mode               : Constant
Bit rate                    : 384 kb/s
Channel(s)                  : 6 channels
Channel positions           : Front: L C R, Side: L R, LFE
Sampling rate               : 48.0 kHz
Frame rate                  : 31.250 FPS (1536 spf)
Compression mode            : Lossy
Stream size                 : 128 MiB (3%)
Title                       : Jaskier
Language                    : Russian
Default                     : Yes
Forced                      : No
Audio #2
ID                          : 3
Format                      : E-AC-3
Format/Info                 : Audio Coding 3
Format settings, Endianness : Big
Codec ID                    : A_EAC3
Duration                    : 46 min 26 s
Bit rate mode               : Constant
Bit rate                    : 640 kb/s
Channel(s)                  : 6 channels
Channel positions           : Front: L C R, Side: L R, LFE
Sampling rate               : 48.0 kHz
Frame rate                  : 187.500 FPS (256 spf)
Compression mode            : Lossy
Stream size                 : 213 MiB (5%)
Title                       : original
Language                    : English
Default                     : No
Forced                      : No
Text
ID                          : 4
Format                      : UTF-8
Codec ID                    : S_TEXT/UTF8
Codec ID/Info               : UTF-8 Plain Text
Duration                    : 46 min 24 s
Bit rate                    : 85 b/s
Count of elements           : 1052
Stream size                 : 28.9 KiB (0%)
Title                       : original
Language                    : English
Default                     : No
Forced                      : No
Внимание! Раздача ведётся путём добавления новых серий; при каждом добавлении создаётся новый торрент. Чтобы начать докачку новой серии, пользователям необходимо сделать следующее:
(1) остановить скачивание,
(2) удалить старый торрент у себя из клиента (старые серии удалять не надо),
(3) скачать новый торрент и запустить его у себя в клиенте вместо старого, при этом указать клиенту путь в старую папку куда и должно происходить скачивание новых серий.
Ваш клиент при этом должен произвести хеширование (проверку) старой папки (если не производит сам - помогите ему сделать это), и будет докачивать только те серии которых у вас ещё нет. Старые серии при этом не удаляются, а продолжают раздаваться!
Eсли вы уже удалили старые серии, то предотвратить повторную закачку старых серий можно, отжав галочку в соответствующих местах при запуске нового торрента. По возможности, желательно не удалять старые серии как можно дольше чтобы релизёр не столько продолжал раздавать старые серии, а смог сконцентрироваться на новых.
pb.wtf



Скачать В розыске через торрент https://i89.fastpic.ru/big/2017/0222/03/7d03e1f50a157a61ab449b261fe51403.png Скачать фильм В розыске через торрент бесплантно в хорошем качестве Описание: Сериал «A.P.B.» исследует, что происходит, когда сталкиваются два мира – эксцентричного богача и прожжённых профессионалов. ... 6.6 10 8
Info! Золотая раздача, скачанное не засчитывается.
Торрент: Зарегистрирован [2017-04-29 07:38] · скачан: 5 раз
Статус: √ проверено
Размер: 39.73 GB
Как cкачать? Как скачать В розыске через торрент | qTorrent

% Раздел Тема Автор DL S | L
Зарубежные сериалы [ 6.47 GB ] В розыске / Сигнал всем постам / A.P.B. / Сезон 1 / Серии 1-12 из 12 [2017 WEBRip] MVO [FOX] bober100 Скачать
1 | 0
Зарубежные сериалы [ 6.45 GB ] В розыске / Сигнал всем постам / A.P.B. / Сезон 1 / Серии 1-12 из 12 [2017 WEBRip] [MVO] killermax2013 Скачать
1 | 0
Зарубежные сериалы [ 5.89 GB ] В розыске / Сигнал всем постам / A.P.B. / Сезон 1 / Серии 1-11 из 12 [2017 WEB-DLRip] [MVO] killermax2013 Скачать
1 | 0
Зарубежные сериалы [ 16.98 GB ] Сигнал всем постам / В розыске / A.P.B. / Сезон 1 / Серии 1-12 из 12 [2017 WEB-DL 720p] MVO [BaibaKo] Dusster Скачать
1 | 0
Зарубежные сериалы [ 4.52 GB ] В розыске / Сигнал всем постам / A.P.B. / Сезон 1 / Серии 1-9 из 12 [2017 HDTVRip] [MVO] killermax2013 Скачать
1 | 0
Зарубежные сериалы [ 10.01 GB ] Сигнал всем постам / В розыске / A.P.B. / Сезон: 1 / Серии 1-12 из 12 [2017 WEB-DLRip-AVC] MVO [BaibaKo] GEKADOL Скачать
1 | 0


Последний раз редактировалось: killermax2013 (2017-04-29 07:38), всего редактировалось 6 раз(а)

28-11-2019 20:33  

Отключить всю рекламу на сайте

11-03-2017 14:25 В розыске Скачать торрент  

+4-5pb.wtf



18-03-2017 11:43 В розыске Скачать торрент  

+6pb.wtf



30-03-2017 07:01 В розыске Скачать торрент  

+7pb.wtf



31-03-2017 16:11 В розыске Скачать торрент  

+8pb.wtf



13-04-2017 15:41 В розыске Скачать торрент  

+9-10pb.wtf



21-04-2017 17:21 В розыске Скачать торрент  

+11pb.wtf



29-04-2017 07:39 В розыске Скачать торрент  

+12pb.wtf



    Дорогой пользователь! Огромная просьба, поблагодарите релизера, оцените раздачу и оставьте свои комментарий, если Вы скачали В розыске через торрент бесплатно! Внесите свою лепту в развитие PiratBit!
    Комментировать посты могут только пользователи прошедшие не сложную регистрацию
    Показать сообщения:    

    В розыске через торрент
    Скачать бесплатно В розыске
    В розыске скачать торрент
    В розыске смотреть онлайн
    Cкачать фильм В розыске бесплатно
    В розыске скачать торрент в хорошем качестве
    В розыске смотреть онлайн бесплатно в хорошем качестве


    Вы не можете начинать темы
    Вы не можете отвечать на сообщения
    Вы не можете редактировать свои сообщения
    Вы не можете удалять свои сообщения
    Вы не можете голосовать в опросах
    Вы не можете прикреплять файлы к сообщениям
    Вы можете скачивать файлы