Ссылка на приватное зеркало нашего сайта всего за 1$. Внимание количество ограничено!!!

2 сезон

iTunes

1 сезон

1

2 сезон

2 сезон

iTunes

1 сезон

RePack

30

Ultimate

ВАЖНО

ИГРА 18+

pack

RePack

MK11
pack

Забери бонус

RePack

jed

!!Акция!!

Alien_Rage

RePack

fifa19

RePack

Assassins Creed: Odyssey

RePack

NEED FOR SPEED™ PAYBACK

4 сезон

9 сезон

Бесстыжие 9 сезон

Все сериалы

все сериалы на PB.wtf

RePack

FAR CRY 5
  

В розыске / Сигнал всем постам / A.P.B. / Сезон 1 / Серии 1-9 из 12 (Дуан Кларк, Джеффри Дж. Хант, Эми Канаан Манн) [2017, Драма, криминал, HDTVRip] [MVO] (ColdFilm) pb.wtf

В розыске через торрент pb.wtf

Размер: 4.52 GB | Добавлен: 3 года 7 мес. назад | Торрент скачан:9 раз
Скачать  

07-03-2017 19:31 В розыске Скачать торрент  

В розыскеA.P.B.

Год выпуска: 2017
Страна: США
Жанр: Драма, криминал
Продолжительность: 00:43:00
Перевод: Любительский (многоголосый закадровый) ColdFilm
Субтитры: отсутствуют

Режиссёр: Дуан Кларк, Джеффри Дж. Хант, Эми Канаан Манн

В ролях: Джастин Кирк, Натали Мартинес, Кэйтлин Стэйси, Уильям Смайли, Адам Менджеринк, Алекс Зеленка, Ральф Аббас

Описание: Сериал «A.P.B.» исследует, что происходит, когда сталкиваются два мира – эксцентричного богача и прожжённых профессионалов. Местом действия является проблемный полицейский участок, работой которого не довольны ни начальство копов, ни их контингент. Ситуация принимает другой оборот после смерти на землях, находящихся в юрисдикции участка, человека, очень близкого одному загадочному современному миллиардеру. Богач скупает территорию и фактически становится хозяином полицейского учреждения. Сможет ли эта передовая таинственная и могущественная фигура как-то исправить ветеранов проблемного участка?


Качество: HDTVRip
Формат: AVI
Видео: XviD, 720x400 (16:9), 23,976 fps, ~1500 kbps
Аудио: MP3, 48 kHz, 2 ch, 128 kbps
General
Complete name : E:\APB\APB.S01E05.ColdFilm.avi
Format : AVI
Format/Info : Audio Video Interleave
File size : 491 MiB
Duration : 41mn 9s
Overall bit rate mode : Constant
Overall bit rate : 1 667 Kbps
Writing application : VirtualDubMod 1.5.10.2 (build 2540/release)
Writing library : VirtualDubMod build 2540/release

Video
ID : 0
Format : AVC
Format/Info : Advanced Video Codec
Format profile : Main@L3
Format settings, CABAC : Yes
Format settings, ReFrames : 1 frame
Codec ID : H264
Duration : 41mn 9s
Bit rate mode : Constant
Bit rate : 1 500 Kbps
Width : 720 pixels
Height : 400 pixels
Display aspect ratio : 16:9
Frame rate : 100.000 fps
Original frame rate : 25.000 fps
Color space : YUV
Chroma subsampling : 4:2:0
Bit depth : 8 bits
Scan type : Progressive
Bits/(Pixel*Frame) : 0.052
Stream size : 431 MiB (88%)

Audio
ID : 1
Format : MPEG Audio
Format version : Version 1
Format profile : Layer 3
Mode : Joint stereo
Mode extension : MS Stereo
Codec ID : 55
Codec ID/Hint : MP3
Duration : 41mn 9s
Bit rate mode : Constant
Bit rate : 128 Kbps
Channel(s) : 2 channels
Sampling rate : 48.0 KHz
Compression mode : Lossy
Delay relative to video : 4ms
Stream size : 37.7 MiB (8%)
Alignment : Split accross interleaves
Внимание! Раздача ведётся путём добавления новых серий; при каждом добавлении создаётся новый торрент. Чтобы начать докачку новой серии, пользователям необходимо сделать следующее:
(1) остановить скачивание,
(2) удалить старый торрент у себя из клиента (старые серии удалять не надо),
(3) скачать новый торрент и запустить его у себя в клиенте вместо старого, при этом указать клиенту путь в старую папку куда и должно происходить скачивание новых серий.
Ваш клиент при этом должен произвести хеширование (проверку) старой папки (если не производит сам - помогите ему сделать это), и будет докачивать только те серии которых у вас ещё нет. Старые серии при этом не удаляются, а продолжают раздаваться!
Eсли вы уже удалили старые серии, то предотвратить повторную закачку старых серий можно, отжав галочку в соответствующих местах при запуске нового торрента. По возможности, желательно не удалять старые серии как можно дольше чтобы релизёр не столько продолжал раздавать старые серии, а смог сконцентрироваться на новых.
pb.wtf



Скачать В розыске через торрент http://i91.fastpic.ru/big/2017/0307/02/4c8bd9d7a6cbfd619b279ea652847502.jpg Скачать фильм В розыске через торрент бесплантно в хорошем качестве Описание: Сериал «A.P.B.» исследует, что происходит, когда сталкиваются два мира – эксцентричного богача и прожжённых профессионалов. ... 9.7 10 3
Торрент: Зарегистрирован [2017-04-04 18:38] · скачан: 9 раз
Статус: √ проверено
Размер: 4.52 GB
Как cкачать? Как скачать В розыске через торрент | qTorrent

28-11-2019 20:33  

Отключить всю рекламу на сайте

04-04-2017 18:39 В розыске Скачать торрент  

+6-9pb.wtf



    Дорогой пользователь! Огромная просьба, поблагодарите релизера, оцените раздачу и оставьте свои комментарий, если Вы скачали В розыске через торрент бесплатно! Внесите свою лепту в развитие PiratBit!
    Комментировать посты могут только пользователи прошедшие не сложную регистрацию
    Показать сообщения:    

    В розыске через торрент
    Скачать бесплатно В розыске
    В розыске скачать торрент
    В розыске смотреть онлайн
    Cкачать фильм В розыске бесплатно
    В розыске скачать торрент в хорошем качестве
    В розыске смотреть онлайн бесплатно в хорошем качестве


    Вы не можете начинать темы
    Вы не можете отвечать на сообщения
    Вы не можете редактировать свои сообщения
    Вы не можете удалять свои сообщения
    Вы не можете голосовать в опросах
    Вы не можете прикреплять файлы к сообщениям
    Вы можете скачивать файлы