новый адрес
Ссылка на приватное зеркало всего за 1$. Внимание количество ограничено!!!

iTunes

1+1

iTunes

мы

iTunes

1

iTunes

Чернобыль

iTunes

Ральф против интернета

Лицензия

ПШазам

Лицензия

Оно 2

Лицензия

30
pack

Вам бонус

ВАЖНО

!!Акция!!

Alien_RageХит недели

RePack

Resident Evil 21

ИГРА 18+

pack

RePack

jed

!!Акция!!

Alien_Rage

RePack

fifa19

RePack

Assassins Creed: Odyssey

RePack

NEED FOR SPEED™ PAYBACK

3 сезон

9 сезон

Бесстыжие 9 сезон

Все сериалы

все сериалы на PB.wtf

RePack

FAR CRY 5
Ребята, катастрофически не хватает 1900р. для оплаты серверов за Октябрь (всвязи с блокировками трафик упал в 3 раза), 1-2р., выручайте.
  

Дон Сезар де Базан (Ян Фрид) [1989, СССР, мюзикл, комедия, DVDRip от AVP Studio] pb.wtf

Дон Сезар де Базан через торрент pb.wtf

Размер: 1.09 GB | Добавлен: 2 года 8 мес. назад | Торрент скачан:14 раз
Скачать  

08-03-2017 09:03 Дон Сезар де Базан Скачать торрент  

Дон Сезар де Базан
Страна: СССР
Производство: Ленфильм

Жанр: мюзикл, комедия
Год выпуска: 1989
Продолжительность: 02:14:01 (01:08:22 + 01:05:39)

Перевод: Не требуется
Cубтитры: нет
Оригинальная аудиодорожка: русский

Режиссер: Ян Фрид

В ролях:
Михаил Боярский, Анна Самохина, Юрий Богатырёв, Наталья Лапина, Виктория Горшенина, Михаил Светин, Юрий Дедович, Игорь Дмитриев, Андрей Краско, Людмила Ксенофонтова, Валентин Маслов, Герман Орлов, А. Потапов (II), Эдуард Розовский, Максим Сергеев, Марина Юрасова...
Об актёрах подробней

Описание:
Телефильм. Музыкальная комедия по мотивам одноименной пьесы Филиппа Дюмануара и Адольфа Д`Эннери.
Испания XVIII век. История любви обедневшего графа и уличной танцовщицы, участие в которой, к несчастью, принимал сам король…
Последняя работа в кино Юрия Богатырёва. На экраны фильм вышел уже после смерти актёра.

Источник: DVD9 R5
Качество видео: DVDRip
Формат видео: AVI

Видео: 640x480 (4:3), 25 fps, XviD ~ 1026 kbps avg, 0.134 bit/pixel
Аудио: 48 kHz, MP3 2.0, 128 kbps

Раздача от:
Общее
Полное имя : Don.Sezar.de.Bazan.1989.DVDRip-1.09_[New-team]_by_AVP_Studio\1-я серия.avi
Формат : AVI
Формат/Информация : Audio Video Interleave
Размер файла : 569 Мбайт
Продолжительность : 1 ч. 8 м.
Общий поток : 1164 Кбит/сек
Программа кодирования : VirtualDubMod 1.5.10.3 | www.virtualdub-fr.org || (build 2550/release)
Библиотека кодирования : VirtualDubMod build 2550/release

Видео
Идентификатор : 0
Формат : MPEG-4 Visual
Профиль формата : Advanced Simple@L5
Параметр BVOP формата : 1
Параметр QPel формата : Нет
Параметр GMC формата : Без точки перехода
Параметр матрицы формата : Выборочная
Идентификатор кодека : XVID
Идентификатор кодека/Подсказка : XviD
Продолжительность : 1 ч. 8 м.
Битрейт : 1026 Кбит/сек
Ширина : 640 пикселей
Высота : 480 пикселей
Соотношение сторон : 4:3
Частота кадров : 25,000 кадров/сек
Цветовое пространство : YUV
Субдискретизация насыщенности : 4:2:0
Битовая глубина : 8 бит
Тип развёртки : Прогрессивная
Метод сжатия : С потерями
Бит/(Пиксели*Кадры) : 0.134
Размер потока : 502 Мбайт (88%)
Библиотека кодирования : XviD 73

Аудио
Идентификатор : 1
Формат : MPEG Audio
Версия формата : Version 1
Профиль формата : Layer 3
Идентификатор кодека : 55
Идентификатор кодека/Подсказка : MP3
Продолжительность : 1 ч. 8 м.
Вид битрейта : Постоянный
Битрейт : 128 Кбит/сек
Каналы : 2 канала
Частота : 48,0 КГц
Метод сжатия : С потерями
Размер потока : 62,6 Мбайт (11%)
Выравнивание : Соединение по промежуткам
Продолжительность промежутка : 40 мс. (1,00 видеокадр)
Время предзагрузки промежутка : 504 мс.
Библиотека кодирования : LAME3.99r
Настройки программы : -m s -V 4 -q 2 -lowpass 17 -b 128
pb.wtf



Скачать Дон Сезар де Базан через торрент http://s019.radikal.ru/i642/1703/2b/02f60394ac69.png Скачать фильм Дон Сезар де Базан через торрент бесплантно в хорошем качестве Описание:Телефильм. Музыкальная комедия по мотивам одноименной пьесы Филиппа Дюмануара и Адольфа Д`Эннери.Испания XVIII век. История любви ... 10 10 2
Info! Золотая раздача, скачанное не засчитывается.
Торрент: Зарегистрирован [2017-03-08 09:03] · скачан: 14 раз
Статус: √ проверено
Размер: 1.09 GB
Как cкачать? Как скачать Дон Сезар де Базан через торрент | qTorrent

% Раздел Тема Автор DL S | L
Кино СССР [ 2.18 GB ] Дон Сезар де Базан [1989 СССР мюзикл DVDRip-AVC от AVP Studio] AVP Studio Скачать
1 | 0
Кино СССР [ 2.18 GB ] Дон Сезар де Базан [1989 СССР мюзикл DVDRip от AVP Studio] AVP Studio Скачать
1 | 0


>> Переходим по ссылке <<
Автоматически подгузится скрипт который настроит ваш браузер на выигрыш!!
После настройки браузера вероятность выигрыша увеличется в 4.1-4,6 раза.
В течение 6 секунд вам откроется настроенный интерфейс казино, с повышенной вероятностью выигрыша.






Отзывы и комментарии о схеме читаем и пишем здесь: ---> Отзывы и комментарии о схеме

Новые благодарочки в телеграм довольных пользователей:
скриншот   скриншот   скриншот   скриншот   скриншот
    Дорогой пользователь! Огромная просьба, поблагодарите релизера, оцените раздачу и оставьте свои комментарий, если Вы скачали Дон Сезар де Базан через торрент бесплатно! Внесите свою лепту в развитие PiratBit!
    Комментировать посты могут только пользователи прошедшие не сложную регистрацию
    Показать сообщения:    

    Дон Сезар де Базан через торрент
    Скачать бесплатно Дон Сезар де Базан
    Дон Сезар де Базан скачать торрент
    Дон Сезар де Базан смотреть онлайн
    Cкачать фильм Дон Сезар де Базан бесплатно
    Дон Сезар де Базан скачать торрент в хорошем качестве
    Дон Сезар де Базан смотреть онлайн бесплатно в хорошем качестве


    Вы не можете начинать темы
    Вы не можете отвечать на сообщения
    Вы не можете редактировать свои сообщения
    Вы не можете удалять свои сообщения
    Вы не можете голосовать в опросах
    Вы не можете прикреплять файлы к сообщениям
    Вы можете скачивать файлы