Ссылка на приватное зеркало нашего сайта всего за 1$. Внимание количество ограничено!!!

2 сезон

iTunes

1 сезон

1

iTunes

iTunes

iTunes

1 сезон

RePack

30

ИГРА 18+

pack

ВАЖНО

!!Акция!!

Alien_RageХит недели

RePack

MK11
pack

Забери бонус

RePack

jed

!!Акция!!

Alien_Rage

RePack

fifa19

RePack

Assassins Creed: Odyssey

RePack

NEED FOR SPEED™ PAYBACK

4 сезон

9 сезон

Бесстыжие 9 сезон

Все сериалы

все сериалы на PB.wtf

RePack

FAR CRY 5
  

Заклинатель лошадей / The Horse Whisperer (Роберт Редфорд) [1998, драма, мелодрама, вестерн, BDRip 1080p by msltel] 2 x MVO, DVO, AVO pb.wtf

Заклинатель лошадей через торрент pb.wtf

Размер: 24.07 GB | Добавлен: 3 года 7 мес. назад | Торрент скачан:7 раз
Скачать  

08-03-2017 10:28 Заклинатель лошадей Скачать торрент  

Название: Заклинатель лошадей
Оригинальное название: The Horse Whisperer
Год выпуска: 1998
Страна: США
Жанр: драма, мелодрама, вестерн
Продолжительность: 02:49:16
Перевод: профессиональный многоголосый, профессиональный двухголосый, авторский

Режиссёр: Роберт Редфорд

В ролях: Роберт Редфорд, Кристин Скотт Томас, Сэм Нилл, Скарлетт Йоханссон, Дайэнн Уист, Крис Купер, Черри Джонс, Тай Хиллман, Кейт Босворт, Джессалин Гилсиг

Описание: Самое страшное испытание для любой матери — несчастье с её ребенком. Энни Маклин убедилась в этом на собственном опыте. Во время верховой прогулки серьезно пострадала её дочь. Энни бессильна помочь несчастной девочке и в отчаянии увозит её из шумного города на Дикий Запад, прочь от суеты и печальных воспоминаний. Мать и дочь не подозревают, что здесь они встретят человека, которому под силу изменить их судьбу. Том Букер — укротитель лошадей, обладающий таинственной властью над животнымиИ и его глубокий дар способен исцелять душевные раны... Фильм снят по мотивам романа Николаса Эванса «Заклинатель лошадей» (The Horse Whisperer, 1995).



Качество: BDRip 1080p
Формат: MKV
Видео: MPEG-4 AVC, 15.2 Mбит/с, 1920x824, 23,976 кадра/с
Аудио 1: русский, DTS, 1509 kbps, 6 ch, 48 kHz [профессиональный многоголосый, Видеосервис]
Аудио 2: русский, AC3, 192 kbps, 2 ch, 48 kHz [профессиональный многоголосый, Первый канал]
Аудио 3: русский, AC3, 448 kbps, 6 ch, 48 kHz [профессиональный двухголосый, HTB+]
Аудио 4: русский, DTS, 1509 kbps, 6 ch, 48 kHz [авторский, Юрий Живов]
Аудио 5: английский, DTS, 1409 kbps, 6 ch, 48 kHz [оригинал]
Субтитры 1: русские
Субтитры 2: английские (для слабослышащих)
Имеются неименованные главы/чаптеры.
Общее
Уникальный идентификатор : 241925811437100566236982644295993737335 (0xB6013769B4A11D6881A909F61D354077)
Полное имя : D:\Video\Заклинатель лошадей.1998.BDRip.1080p by msltel.mkv
Формат : Matroska
Версия формата : Version 4 / Version 2
Размер файла : 24,1 Гбайт
Продолжительность : 2 ч. 49 м.
Общий поток : 20,4 Мбит/сек
Название фильма : Rip by msltel
Дата кодирования : UTC 2017-03-08 05:27:01
Программа кодирования : mkvmerge v8.2.0 ('World of Adventure') 64bit
Библиотека кодирования : libebml v1.3.1 + libmatroska v1.4.2

Видео
Идентификатор : 1
Формат : AVC
Формат/Информация : Advanced Video Codec
Профиль формата : High@L4.1
Параметр CABAC формата : Да
Параметр ReFrames формата : 4 кадра
Идентификатор кодека : V_MPEG4/ISO/AVC
Продолжительность : 2 ч. 49 м.
Битрейт : 15,2 Мбит/сек
Ширина : 1920 пикселей
Высота : 824 пикселя
Соотношение сторон : 2,35:1
Режим частоты кадров : Постоянный
Частота кадров : 23,976 (24000/1001) кадра/сек
Цветовое пространство : YUV
Субдискретизация насыщенности : 4:2:0
Битовая глубина : 8 бит
Тип развёртки : Прогрессивная
Бит/(Пиксели*Кадры) : 0.400
Размер потока : 18,0 Гбайт (75%)
Библиотека кодирования : x264 core 146 r2538 121396c
Настройки программы : cabac=1 / ref=4 / deblock=1:-3:-2 / analyse=0x3:0x113 / me=umh / subme=11 / psy=1 / psy_rd=1.00:0.15 / mixed_ref=1 / me_range=32 / chroma_me=1 / trellis=2 / 8x8dct=1 / cqm=0 / deadzone=21,11 / fast_pskip=0 / chroma_qp_offset=-3 / threads=6 / lookahead_threads=1 / sliced_threads=0 / nr=0 / decimate=1 / interlaced=0 / bluray_compat=0 / constrained_intra=0 / bframes=12 / b_pyramid=2 / b_adapt=2 / b_bias=0 / direct=1 / weightb=1 / open_gop=0 / weightp=2 / keyint=230 / keyint_min=23 / scenecut=40 / intra_refresh=0 / rc_lookahead=40 / rc=crf / mbtree=0 / crf=18.8 / qcomp=0.60 / qpmin=0 / qpmax=69 / qpstep=4 / vbv_maxrate=62500 / vbv_bufsize=78125 / crf_max=0.0 / nal_hrd=none / filler=0 / ip_ratio=1.40 / pb_ratio=1.30 / aq=1:1.00
Язык : English
Default : Да
Forced : Нет

Аудио #1
Идентификатор : 2
Формат : DTS
Формат/Информация : Digital Theater Systems
Режим : 16
Параметр Endianness формата : Big
Идентификатор кодека : A_DTS
Продолжительность : 2 ч. 49 м.
Вид битрейта : Постоянный
Битрейт : 1509 Кбит/сек
Каналы : 6 каналов
Расположение каналов : Front: L C R, Side: L R, LFE
Частота : 48,0 КГц
Частота кадров : 93,750 кадра/сек (512 spf)
Битовая глубина : 24 бит
Метод сжатия : С потерями
Размер потока : 1,78 Гбайт (7%)
Заголовок : MVO (Видеосервис)
Язык : Russian
Default : Да
Forced : Нет

Аудио #2
Идентификатор : 3
Формат : AC-3
Формат/Информация : Audio Coding 3
Режим : Dolby Digital
Параметр Endianness формата : Big
Идентификатор кодека : A_AC3
Продолжительность : 2 ч. 49 м.
Вид битрейта : Постоянный
Битрейт : 192 Кбит/сек
Каналы : 2 канала
Расположение каналов : Front: L R
Частота : 48,0 КГц
Частота кадров : 31,250 кадров/сек (1536 spf)
Битовая глубина : 16 бит
Метод сжатия : С потерями
Размер потока : 232 Мбайт (1%)
Заголовок : MVO (Первый канал)
Язык : Russian
ServiceKind/String : Complete Main
Default : Нет
Forced : Нет

Аудио #3
Идентификатор : 4
Формат : AC-3
Формат/Информация : Audio Coding 3
Параметр Endianness формата : Big
Идентификатор кодека : A_AC3
Продолжительность : 2 ч. 49 м.
Вид битрейта : Постоянный
Битрейт : 448 Кбит/сек
Каналы : 6 каналов
Расположение каналов : Front: L C R, Side: L R, LFE
Частота : 48,0 КГц
Частота кадров : 31,250 кадров/сек (1536 spf)
Битовая глубина : 16 бит
Метод сжатия : С потерями
Размер потока : 542 Мбайт (2%)
Заголовок : DVO (HTB+)
Язык : Russian
ServiceKind/String : Complete Main
Default : Нет
Forced : Нет

Аудио #4
Идентификатор : 5
Формат : DTS
Формат/Информация : Digital Theater Systems
Режим : 16
Параметр Endianness формата : Big
Идентификатор кодека : A_DTS
Продолжительность : 2 ч. 49 м.
Вид битрейта : Постоянный
Битрейт : 1509 Кбит/сек
Каналы : 6 каналов
Расположение каналов : Front: L C R, Side: L R, LFE
Частота : 48,0 КГц
Частота кадров : 93,750 кадра/сек (512 spf)
Битовая глубина : 24 бит
Метод сжатия : С потерями
Размер потока : 1,78 Гбайт (7%)
Заголовок : AVO (Юрий Живов)
Язык : Russian
Default : Нет
Forced : Нет

Аудио #5
Идентификатор : 6
Формат : DTS
Формат/Информация : Digital Theater Systems
Режим : 16
Параметр Endianness формата : Big
Идентификатор кодека : A_DTS
Продолжительность : 2 ч. 49 м.
Вид битрейта : Постоянный
Битрейт : 1509 Кбит/сек
Каналы : 6 каналов
Расположение каналов : Front: L C R, Side: L R, LFE
Частота : 48,0 КГц
Частота кадров : 93,750 кадра/сек (512 spf)
Битовая глубина : 24 бит
Метод сжатия : С потерями
Размер потока : 1,78 Гбайт (7%)
Заголовок : original
Язык : English
Default : Нет
Forced : Нет

Текст #1
Идентификатор : 7
Формат : UTF-8
Идентификатор кодека : S_TEXT/UTF8
Идентификатор кодека/Информация : UTF-8 Plain Text
Продолжительность : 2 ч. 40 м.
Битрейт : 66 бит/сек
ElementCount : 1231
Размер потока : 78,0 Кбайт (0%)
Заголовок : русские
Язык : Russian
Default : Нет
Forced : Нет

Текст #2
Идентификатор : 8
Формат : UTF-8
Идентификатор кодека : S_TEXT/UTF8
Идентификатор кодека/Информация : UTF-8 Plain Text
Продолжительность : 2 ч. 41 м.
Битрейт : 49 бит/сек
ElementCount : 1806
Размер потока : 58,0 Кбайт (0%)
Заголовок : английские (для слабослышащих)
Язык : English
Default : Нет
Forced : Нет

Меню
00:00:00.000 : :Chapter 01
00:07:33.161 : :Chapter 02
00:11:54.588 : :Chapter 03
00:21:21.320 : :Chapter 04
00:35:42.556 : :Chapter 05
00:41:47.129 : :Chapter 06
00:45:11.875 : :Chapter 07
00:51:43.850 : :Chapter 08
00:56:12.118 : :Chapter 09
00:58:07.901 : :Chapter 10
01:02:58.941 : :Chapter 11
01:20:36.832 : :Chapter 12
01:26:43.406 : :Chapter 13
01:31:36.198 : :Chapter 14
01:43:04.344 : :Chapter 15
01:52:30.493 : :Chapter 16
01:54:12.679 : :Chapter 17
02:08:01.006 : :Chapter 18
02:17:06.843 : :Chapter 19
02:19:40.789 : :Chapter 20
02:39:27.015 : :Chapter 21
02:42:46.590 : :Chapter 22
02:49:15.770 : :Chapter 23
pb.wtf



Скачать Заклинатель лошадей через торрент http://s012.radikal.ru/i320/1703/7c/28fa00993e93.jpg Скачать фильм Заклинатель лошадей через торрент бесплантно в хорошем качестве Описание: Самое страшное испытание для любой матери — несчастье с её ребенком. Энни Маклин убедилась в этом на собственном опыте. Во время ... 10 10 3
Info! Золотая раздача, скачанное не засчитывается.
Торрент: Зарегистрирован [2017-03-08 10:28] · скачан: 7 раз
Статус: √ проверено
Размер: 24.07 GB
Как cкачать? Как скачать Заклинатель лошадей через торрент | qTorrent

% Раздел Тема Автор DL S | L
Фильмы [HD 720p, 1080p] (Хороший звук DUB, MVO) [ 8.03 GB ] Заклинатель лошадей / The Horse Whisperer [1998 BDRip 720p by msltel] 2 x MVO DVO AVO msltel Скачать
1 | 0

28-11-2019 20:33  

Отключить всю рекламу на сайте

    Дорогой пользователь! Огромная просьба, поблагодарите релизера, оцените раздачу и оставьте свои комментарий, если Вы скачали Заклинатель лошадей через торрент бесплатно! Внесите свою лепту в развитие PiratBit!
    Комментировать посты могут только пользователи прошедшие не сложную регистрацию
    Показать сообщения:    

    Заклинатель лошадей через торрент
    Скачать бесплатно Заклинатель лошадей
    Заклинатель лошадей скачать торрент
    Заклинатель лошадей смотреть онлайн
    Cкачать фильм Заклинатель лошадей бесплатно
    Заклинатель лошадей скачать торрент в хорошем качестве
    Заклинатель лошадей смотреть онлайн бесплатно в хорошем качестве


    Вы не можете начинать темы
    Вы не можете отвечать на сообщения
    Вы не можете редактировать свои сообщения
    Вы не можете удалять свои сообщения
    Вы не можете голосовать в опросах
    Вы не можете прикреплять файлы к сообщениям
    Вы можете скачивать файлы