2 сезон

iTunes

MVO

1

2 сезон

iTunes

iTunes

1 сезон

RePack

30

Новинка

ВАЖНО

ИГРА 18+

pack

RePack

MK11
pack

Легкие деньги

RePack

jed

RePack

fifa19

RePack

RDR2

RePack

NEED FOR SPEED™ PAYBACK

4 сезон

9 сезон

Бесстыжие 9 сезон

Все сериалы

все сериалы на PB.wtf

RePack

FAR CRY 5

Anonymous, доброе утро, мы не успеваем собрать деньги на оплату серверов за декабрь и январь, помогите нам пожалуйста в это трудное время. В качестве благодарности мы отключим Вам всю рекламу на сайте (укажите свой ник в строку Ваше имя)!

×
  
Magnet ссылка

Перерыв / Take the 10 (Честер Там) [2017, комедия, WEBRip] Любительский многоголосый ["Синема УС"] pb.wtf

Перерыв через торрент pb.wtf

Размер: 1.37 GB | Добавлен: 3 года 10 мес. назад | Торрент скачан:210 раз
Скачать  

08-03-2017 15:36 Перерыв Скачать торрент  

Перерыв / Take the 10

Год выпуска: 2017
Страна: США
Жанр: комедия
Продолжительность: 01:20:32
Перевод: Любительский многоголосый ["Синема УС"]
Режиссер: Честер Там
В ролях: Джош Пек (Chris), Тони Револори (Chester), Кевин Корригэн (Danny), Честер Там (Jay), Стелла Маив (Brooke), Клеопатра Коулмэн (Sahara), Карлос Аласраки (Carlo), Xavi J. Israel (Rico), Майк Брадесич (Tony), Пол МакКрейн (Carey), Ашанти Браун (Gale), Джордан Рок (Greg)
Описание:
Пока Честер работает на двойных сменах в продуктовом магазине и мечтает накопить на поездку в Бразилию, его друг Крис целые дни проводит клея чужих телок, влезая в долги и мечтая попасть на очередной концерт. И вот накануне грандиозного "Rock the Bells" Честер решает подвести черту, продать машину и окончательно выяснить - готов ли Крис поехать с ним, или их дружба не настолько крепка, как им кажется. К сожалению, день он для всего этого выбрал неудачный: начальник узнает про их старые махинации с товаром, Крис связывается с наркоторговцем с неясной половой ориентацией, да и у Честера с продажей машины дела идут не очень.
Рейтинг:

Качество: WEBRip
Формат: AVI
Видео: XviD, 720x304 (2.35:1), 2036 kbps, 23,976 fps, 0,388 bpp
Аудио: AC3 / 2.0 / 48 kHz / 384 kbps /


General
Complete name : G:\Take.The.10.2016.P.WEB-DLRip.14OOMB_KOSHARA.avi
Format : AVI
Format/Info : Audio Video Interleave
File size : 1.37 GiB
Duration : 1 h 20 min
Overall bit rate : 2 430 kb/s
Writing application : VirtualDubMod 1.5.10.2 (build 2540/release)
Writing library : VirtualDubMod build 2540/release

Video
ID : 0
Format : MPEG-4 Visual
Format profile : Advanced Simple@L5
Format settings, BVOP : 2
Format settings, QPel : No
Format settings, GMC : No warppoints
Format settings, Matrix : Default (MPEG)
Codec ID : XVID
Codec ID/Hint : XviD
Duration : 1 h 20 min
Bit rate : 2 037 kb/s
Width : 720 pixels
Height : 304 pixels
Display aspect ratio : 2.35:1
Frame rate : 23.976 (24000/1001) FPS
Color space : YUV
Chroma subsampling : 4:2:0
Bit depth : 8 bits
Scan type : Progressive
Compression mode : Lossy
Bits/(Pixel*Frame) : 0.388
Stream size : 1.15 GiB (84%)
Writing library : XviD 1.2.1 (UTC 2008-12-04)

Audio
ID : 1
Format : AC-3
Format/Info : Audio Coding 3
Mode extension : CM (complete main)
Format settings, Endianness : Big
Codec ID : 2000
Duration : 1 h 20 min
Bit rate mode : Constant
Bit rate : 384 kb/s
Channel(s) : 2 channels
Channel positions : Front: L R
Sampling rate : 48.0 kHz
Frame rate : 31.250 FPS (1536 spf)
Compression mode : Lossy
Stream size : 221 MiB (16%)
Alignment : Split accross interleaves
Interleave, duration : 42 ms (1.00 video frame)
Interleave, preload duration : 500 ms
pb.wtf



Скачать Перерыв через торрент http://i89.fastpic.ru/big/2017/0308/4a/785d6338a0d85a9894949bfe9fbac54a.jpg Скачать фильм Перерыв через торрент бесплантно в хорошем качестве Описание: Пока Честер работает на двойных сменах в продуктовом магазине и мечтает накопить на поездку в Бразилию, его друг Крис целые дни ... 7.5 10 10
Торрент: Зарегистрирован [2017-03-08 15:36] · скачан: 210 раз
Статус: T временная
Размер: 1.37 GB
Как cкачать? Как скачать Перерыв через торрент | UTorrent

28-11-2019 20:33  

Отключить всю рекламу на сайте


08-03-2017 16:17 Перерыв Скачать торрент  

max199200, немного поправил оформление.
Качество - WEBRip.
Год выхода - указываем год выхода фильма на экраны, в данном случае 2017.
А также просьба отредактировать шаблон во ФлешРелизе и не использовать теги [code] под спойлером с отчетом МедиаИнфо при офомлении раздач (большая нагрузка на сервер).
Благодарю за раздачу!pb.wtf



    Дорогой пользователь! Огромная просьба, поблагодарите релизера, оцените раздачу и оставьте свои комментарий, если Вы скачали Перерыв через торрент бесплатно! Внесите свою лепту в развитие PiratBit!
    Комментировать посты могут только пользователи прошедшие не сложную регистрацию
    Показать сообщения:    

    Перерыв через торрент
    Скачать бесплатно Перерыв
    Перерыв скачать торрент
    Перерыв смотреть онлайн
    Cкачать фильм Перерыв бесплатно
    Перерыв скачать торрент в хорошем качестве
    Перерыв смотреть онлайн бесплатно в хорошем качестве


    Вы не можете начинать темы
    Вы не можете отвечать на сообщения
    Вы не можете редактировать свои сообщения
    Вы не можете удалять свои сообщения
    Вы не можете голосовать в опросах
    Вы не можете прикреплять файлы к сообщениям
    Вы можете скачивать файлы