Ссылка на приватное зеркало нашего сайта всего за 1$. Внимание количество ограничено!!!

2 сезон

iTunes

1 сезон

1

iTunes

iTunes

iTunes

1 сезон

RePack

30

ИГРА 18+

pack

ВАЖНО

!!Акция!!

Alien_RageХит недели

RePack

MK11
pack

Забери бонус

RePack

jed

!!Акция!!

Alien_Rage

RePack

fifa19

RePack

Assassins Creed: Odyssey

RePack

NEED FOR SPEED™ PAYBACK

4 сезон

9 сезон

Бесстыжие 9 сезон

Все сериалы

все сериалы на PB.wtf

RePack

FAR CRY 5
  

Цыганское счастье / Сезон 1 / Серии 1 - 8 из 8 (Рамиль Сабитов) [2016 г., Мелодрама, HDTVRip] pb.wtf

Цыганское счастье через торрент pb.wtf

Качают: 1 [ 0 KB/s ]
Размер: 4.29 GB | Добавлен: 3 года 7 мес. назад | Торрент скачан:68 раз
Скачать  

08-03-2017 17:57 Цыганское счастье Скачать торрент  

Цыганское счастье
Год выпуска: 2016
Страна: Россия, Тесей Продакшн
Жанр: Мелодрама
Продолжительность: 8 х ~ 00:45:00
Субтитры: нет

Режиссер: Рамиль Сабитов

В ролях: Елена Полянская, Алексей Нестеренко, Александр Рубенчик, Станислав Эрдлей, Борис Абаров, Рамиль Сабитов, Юлиана Сабитова, Кристина Сабитова, Тимофей Каратаев, Мария Федорко, Алексей Федорко, Элеонора Блудова, Евгений Женихов, Андрей Соломыков, Геннадий Казачков, Евгений Клеймёнов, Олег Метелев

Описание: Надя - современная молодая девушка, живет в мире гаджетов, социальных сетей и распланированной карьеры, которая для нее на первом месте. Но однажды судьба сводит ее с красавцем-цыганом, певцом Яном. Молодые люди не нравятся друг другу, так как между ними нет ничего общего. К тому же, Надя недолюбливает цыган, а Ян – бойких городских девиц. Однако обстоятельства складываются так, что Наде и Яну придется найти друг с другом общий язык. Они вынуждены вместе бежать из Москвы после того, как их обвиняют в убийстве сына очень важного бизнесмена. Так Надя попадает в цыганский табор, живущий по строгим традициям цыганских законов под руководством старейшины табора Баро, отца Яна.

Качество: HDTVRip
Формат: AVI
Видео кодек: XviD
Аудио кодек: AC3
Видео: XviD, ~ 1650 kbps , 720x400 ,1 597 Kbps
Аудио: AC3, 2 ch, 192 kbps ,48.0 KHz



General
Complete name : H:\релизы.торрентфайл\Цыганское счастье.2016.HDTVRip.Files-x\04.Цыганское счастье.2016.HDTVRip.Files-x.avi
Format : AVI
Format/Info : Audio Video Interleave
File size : 549 MiB
Duration : 42mn 41s
Overall bit rate : 1 799 Kbps
Writing application : VirtualDubMod 1.5.10.3 |
Writing library : VirtualDubMod build 2550/release

Video
ID : 0
Format : MPEG-4 Visual
Format profile : Advanced Simple@L5
Format settings, BVOP : 1
Format settings, QPel : No
Format settings, GMC : No warppoints
Format settings, Matrix : Custom
Codec ID : XVID
Codec ID/Hint : XviD
Duration : 42mn 41s
Bit rate : 1 597 Kbps
Width : 720 pixels
Height : 400 pixels
Display aspect ratio : 16:9
Frame rate : 25.000 fps
Color space : YUV
Chroma subsampling : 4:2:0
Bit depth : 8 bits
Scan type : Progressive
Compression mode : Lossy
Bits/(Pixel*Frame) : 0.222
Stream size : 488 MiB (89%)
Writing library : XviD 73

Audio
ID : 1
Format : AC-3
Format/Info : Audio Coding 3
Mode extension : CM (complete main)
Format settings, Endianness : Big
Codec ID : 2000
Duration : 42mn 41s
Bit rate mode : Constant
Bit rate : 192 Kbps
Channel(s) : 2 channels
Channel positions : Front: L R
Sampling rate : 48.0 KHz
Bit depth : 16 bits
Compression mode : Lossy
Stream size : 58.6 MiB (11%)
Alignment : Split accross interleaves
Interleave, duration : 40 ms (1.00 video frame)
Interleave, preload duration : 500 ms

pb.wtf



Скачать Цыганское счастье через торрент http://i90.fastpic.ru/big/2017/0308/c9/0cf20ab01bf850e919cbad72b69047c9.png Скачать фильм Цыганское счастье через торрент бесплантно в хорошем качестве Описание: Надя - современная молодая девушка, живет в мире гаджетов, социальных сетей и распланированной карьеры, которая для нее на первом ... 10 10 3
Торрент: Зарегистрирован [2017-03-08 17:57] · скачан: 68 раз
Статус: √ проверено
Размер: 4.29 GB
Как cкачать? Как скачать Цыганское счастье через торрент | qTorrent

28-11-2019 20:33  

Отключить всю рекламу на сайте

    Дорогой пользователь! Огромная просьба, поблагодарите релизера, оцените раздачу и оставьте свои комментарий, если Вы скачали Цыганское счастье через торрент бесплатно! Внесите свою лепту в развитие PiratBit!
    Комментировать посты могут только пользователи прошедшие не сложную регистрацию
    Показать сообщения:    

    Цыганское счастье через торрент
    Скачать бесплатно Цыганское счастье
    Цыганское счастье скачать торрент
    Цыганское счастье смотреть онлайн
    Cкачать фильм Цыганское счастье бесплатно
    Цыганское счастье скачать торрент в хорошем качестве
    Цыганское счастье смотреть онлайн бесплатно в хорошем качестве


    Вы не можете начинать темы
    Вы не можете отвечать на сообщения
    Вы не можете редактировать свои сообщения
    Вы не можете удалять свои сообщения
    Вы не можете голосовать в опросах
    Вы не можете прикреплять файлы к сообщениям
    Вы можете скачивать файлы