Ссылка на приватное зеркало всего за 1$. Внимание количество ограничено!!!

OK

1+1

iTunes

мы

OK

1

WEB-DLRip

Джокер

Пифагор

Ведьмак / The Witcher сериал

iTunes

ПШазам

ОК

Оно 2

iTunes

30
pack

Вам бонус

ВАЖНО

!!Акция!!

Alien_RageХит недели

RePack

Resident Evil 21

ИГРА 18+

pack

RePack

jed

RePack

fifa19

RePack

Assassins Creed: Odyssey

RePack

NEED FOR SPEED™ PAYBACK

4 сезон

9 сезон

Бесстыжие 9 сезон

Все сериалы

все сериалы на PB.wtf

RePack

FAR CRY 5
  

Проклятие Даунерс-Гроув / The Curse of Downers Grove (Дерик Мартини) [2015, Ужасы, триллер, HDRip-AVC] VO [Хихикающий доктор] от ExKinoRay pb.wtf

Проклятие Даунерс-Гроув через торрент pb.wtf

Качают: 1 [ 0 KB/s ]
Размер: 1.59 GB | Добавлен: 2 года 10 мес. назад | Торрент скачан:57 раз
Скачать  

08-03-2017 20:06 Проклятие Даунерс-Гроув Скачать торрент  

Название: Проклятие Даунерс-Гроув
Оригинальное название: The Curse of Downers Grove
Год выпуска: 2015
Страна: США, AliBella Pictures, Bystander Films, Management Production Entertainment
Жанр: Триллер, ужасы
Продолжительность: 01:28:48
Озвучка: Любительская одноголосая [Хихикающий доктор]
Перевод фильма: anton1
Субтитры: Русские (форсированные)
Режиссер: Дерик Мартини
В ролях: Кевин Зегерс, Зейн Холц, Хелен Слейтер, Лукас Тилл, Пенелопа Митчелл, Белла Хиткот, Марк Л. Янг, Том Арнольд, Мартин Спэньер, Жаклин Эмерсон

Описание: Над школой Даунерс-Гроув нависло страшное проклятье, требующее раз в год приносить ему в жертву жизнь старшеклассника. Крисси и Трейси — подруги. Первая весьма скептически относится к существованию данного проклятия, а вот вторая верит, что может стать следующей жертвой.

rating

Качество: HDRip (AVC)
Видео: MPEG-4 AVC, 1024x428 (2.40:1), 23.976 fps, ~1670 kbps avg, 0.159 bit/pixel
Аудио1: Русский 48 kHz, AC3 Dolby Digital, 3/2 (L,C,R,l,r) + LFE ch, ~448 kbps
Аудио2: Английский 48 kHz, AC3 Dolby Digital, 3/2 (L,C,R,l,r) + LFE ch, ~448 kbps

Семпл

Примечание: Без рекламы
General
Unique ID : 171263667844203401735952151928858851166 (0x80D82EC0C0B67042BB7F6B680F91B75E)
Complete name : D:\The.Curse.Of.Downers.Grove.2015.VO.HDRip.AVC.ExKinoRay.mkv
Format : Matroska
Format version : Version 4 / Version 2
File size : 1.59 GiB
Duration : 1 h 28 min
Overall bit rate : 2 568 kb/s
Movie name : The Curse Of Downers Grove.2015 from ExKinoRay
Encoded date : UTC 2017-03-08 18:18:08
Writing application : mkvmerge v7.6.0 ('Garden of Dreams') 32bit built on Feb 11 2015 00:18:47
Writing library : libebml v1.3.1 + libmatroska v1.4.2

Video
ID : 1
Format : AVC
Format/Info : Advanced Video Codec
Format profile : High@L4.1
Format settings, CABAC : Yes
Format settings, ReFrames : 12 frames
Codec ID : V_MPEG4/ISO/AVC
Duration : 1 h 28 min
Bit rate : 1 670 kb/s
Width : 1 024 pixels
Height : 428 pixels
Display aspect ratio : 2.40:1
Frame rate mode : Constant
Frame rate : 23.976 (24000/1001) FPS
Color space : YUV
Chroma subsampling : 4:2:0
Bit depth : 8 bits
Scan type : Progressive
Bits/(Pixel*Frame) : 0.159
Stream size : 1.04 GiB (65%)
Title : Enigma
Writing library : x264 core 144 r2525 40bb568
Encoding settings : cabac=1 / ref=12 / deblock=1:-2:-2 / analyse=0x3:0x113 / me=umh / subme=10 / psy=1 / psy_rd=1.05:0.10 / mixed_ref=1 / me_range=32 / chroma_me=1 / trellis=2 / 8x8dct=1 / cqm=0 / deadzone=21,11 / fast_pskip=1 / chroma_qp_offset=-3 / threads=12 / lookahead_threads=2 / sliced_threads=0 / nr=0 / decimate=1 / interlaced=0 / bluray_compat=0 / constrained_intra=0 / bframes=9 / b_pyramid=2 / b_adapt=2 / b_bias=0 / direct=3 / weightb=1 / open_gop=0 / weightp=2 / keyint=240 / keyint_min=23 / scenecut=40 / intra_refresh=0 / rc_lookahead=40 / rc=2pass / mbtree=0 / bitrate=1670 / ratetol=1.0 / qcomp=0.60 / qpmin=0 / qpmax=51 / qpstep=4 / cplxblur=20.0 / qblur=0.5 / vbv_maxrate=50000 / vbv_bufsize=62500 / nal_hrd=none / filler=0 / ip_ratio=1.40 / pb_ratio=1.30 / aq=1:1.00
Language : English
Default : Yes
Forced : No
Color range : Limited
Color primaries : BT.709
Transfer characteristics : BT.709
Matrix coefficients : BT.709

Audio #1
ID : 2
Format : AC-3
Format/Info : Audio Coding 3
Mode extension : CM (complete main)
Format settings, Endianness : Big
Codec ID : A_AC3
Duration : 1 h 28 min
Bit rate mode : Constant
Bit rate : 448 kb/s
Channel(s) : 6 channels
Channel positions : Front: L C R, Side: L R, LFE
Sampling rate : 48.0 kHz
Frame rate : 31.250 FPS (1536 spf)
Bit depth : 16 bits
Compression mode : Lossy
Stream size : 285 MiB (17%)
Title : VO (xixidok)
Language : Russian
Default : Yes
Forced : No

Audio #2
ID : 3
Format : AC-3
Format/Info : Audio Coding 3
Mode extension : CM (complete main)
Format settings, Endianness : Big
Codec ID : A_AC3
Duration : 1 h 28 min
Bit rate mode : Constant
Bit rate : 448 kb/s
Channel(s) : 6 channels
Channel positions : Front: L C R, Side: L R, LFE
Sampling rate : 48.0 kHz
Frame rate : 31.250 FPS (1536 spf)
Bit depth : 16 bits
Compression mode : Lossy
Stream size : 285 MiB (17%)
Language : English
Default : No
Forced : No

Text #1
ID : 4
Format : UTF-8
Codec ID : S_TEXT/UTF8
Codec ID/Info : UTF-8 Plain Text
Duration : 1 h 26 min
Bit rate : 13 b/s
Count of elements : 221
Stream size : 8.49 KiB (0%)
Title : forced
Language : Russian
Default : Yes
Forced : No

Text #2
ID : 5
Format : UTF-8
Codec ID : S_TEXT/UTF8
Codec ID/Info : UTF-8 Plain Text
Duration : 1 h 28 min
Bit rate : 48 b/s
Count of elements : 1036
Stream size : 31.1 KiB (0%)
Language : English
Default : No
Forced : No

Menu
00:00:00.000 : en:Chapter 1
00:05:27.452 : en:Chapter 2
00:13:03.199 : en:Chapter 3
00:24:57.037 : en:Chapter 4
00:29:51.664 : en:Chapter 5
00:37:18.569 : en:Chapter 6
00:45:26.432 : en:Chapter 7
00:50:38.118 : en:Chapter 8
00:55:47.052 : en:Chapter 9
01:03:30.223 : en:Chapter 10
01:08:10.711 : en:Chapter 11
01:19:21.339 : en:Chapter 12
01:28:47.989 : en:Chapter 13
Релиз от:

Автор релиза:

pb.wtf



Скачать Проклятие Даунерс-Гроув через торрент http://s017.radikal.ru/i426/1509/16/7d2a89aa435d.jpg Скачать фильм Проклятие Даунерс-Гроув через торрент бесплантно в хорошем качестве Описание: Над школой Даунерс-Гроув нависло страшное проклятье, требующее раз в год приносить ему в жертву жизнь старшеклассника. Крисси и ... 6 10 7
Info! Золотая раздача, скачанное не засчитывается.
Торрент: Зарегистрирован [2017-03-08 20:06] · скачан: 57 раз
Статус: √ проверено
Размер: 1.59 GB
Как cкачать? Как скачать Проклятие Даунерс-Гроув через торрент | qTorrent

28-11-2019 20:33  

Отключить всю рекламу на сайте

    Дорогой пользователь! Огромная просьба, поблагодарите релизера, оцените раздачу и оставьте свои комментарий, если Вы скачали Проклятие Даунерс-Гроув через торрент бесплатно! Внесите свою лепту в развитие PiratBit!
    Комментировать посты могут только пользователи прошедшие не сложную регистрацию
    Показать сообщения:    

    Проклятие Даунерс-Гроув через торрент
    Скачать бесплатно Проклятие Даунерс-Гроув
    Проклятие Даунерс-Гроув скачать торрент
    Проклятие Даунерс-Гроув смотреть онлайн
    Cкачать фильм Проклятие Даунерс-Гроув бесплатно
    Проклятие Даунерс-Гроув скачать торрент в хорошем качестве
    Проклятие Даунерс-Гроув смотреть онлайн бесплатно в хорошем качестве


    Вы не можете начинать темы
    Вы не можете отвечать на сообщения
    Вы не можете редактировать свои сообщения
    Вы не можете удалять свои сообщения
    Вы не можете голосовать в опросах
    Вы не можете прикреплять файлы к сообщениям
    Вы можете скачивать файлы