2 сезон

iTunes

1 сезон

1

iTunes

iTunes

iTunes

1 сезон

RePack

30

ИГРА 18+

pack

ВАЖНО

!!Акция!!

Alien_RageХит недели

RePack

MK11
pack

Забери бонус

RePack

jed

!!Акция!!

Alien_Rage

RePack

fifa19

RePack

Assassins Creed: Odyssey

RePack

NEED FOR SPEED™ PAYBACK

4 сезон

9 сезон

Бесстыжие 9 сезон

Все сериалы

все сериалы на PB.wtf

RePack

FAR CRY 5
  

Англичанин, который поднялся на холм, а спустился с горы / The Englishman Who Went Up a Hill But Came Down (Кристофер Монгер) [1995, драма, комедия, BDRip 720p by msltel] MVO (любительский), 2 x AVO, VO pb.wtf

Англичанин, который поднялся на холм, а спустился с горы через торрент pb.wtf

Размер: 3.9 GB | Добавлен: 3 года 7 мес. назад | Торрент скачан:55 раз
Скачать  

09-03-2017 07:03 Англичанин, который поднялся на холм, а спустился с горы Скачать торрент  

Название: Англичанин, который поднялся на холм, а спустился с горы
Оригинальное название: The Englishman Who Went Up a Hill But Came Down a Mountain
Год выпуска: 1995
Страна: Великобритания
Жанр: драма, комедия
Продолжительность: 01:35:48
Перевод: любительский многоголосый, авторский, любительский одноголосый

Режиссёр: Кристофер Монгер

В ролях: Хью Грант, Тара Фитцджеральд, Колм Мини, Йен МакНайс, Иэн Харт, Кеннет Гриффит, Тудор Вон, Хью Вон, Роберт Паг, Роберт Блайт, Гарфилд Морган, Лиза Пэлфри, Дэфидд Вин Робертс, Иуан Рис, Анвен Уильямс, Дэвид Ллойд Мередит, Фрезер Кейнс, Джек Уолтерс, Гарри Кречмер, Хауэлл Эванс, Мэйси МакНайс, Николас МакГохи

Описание: Двое англичан-картографов приезжают в 1917-ом году в уэльсскую деревушку и наталкиваются на местный холм Финон-гавр, которому не хватает всего 16 футов, чтобы стать горой на карте. В Англии если высота более 1000 футов, то это гора, менее 1000 футов — холм. Недовольные и эксцентричные жители деревни требуют перемерить гору, но упрямые картографы этого делать не желают. Тогда местные пускаются на хитрость, решая нарастить холм землей с местных полей...



Качество: BDRip 720p
Формат: MKV
Видео: MPEG-4 AVC, 4348 Kбит/с, 1280x544, 24 кадра/с
Аудио 1: русский, AC3, 192 kbps, 2 ch, 48 kHz [любительский многоголосый, ViruseProject]
Аудио 2: русский, AC3, 192 kbps, 2 ch, 48 kHz [авторский, Пётр Карцев]
Аудио 3: русский, AC3, 448 kbps, 6 ch, 48 kHz [авторский, Юрий Сербин]
Аудио 4: русский, AC3, 192 kbps, 2 ch, 48 kHz [любительский одноголосый, Jonh Doe]
Аудио 5: английский, AC3, 448 kbps, 6 ch, 48 kHz [оригинал]
Субтитры 1: русские (для слабослышащих)
Субтитры 2: английские (для слабослышащих)
Имеются неименованные главы/чаптеры.
Общее
Уникальный идентификатор : 245013898674413597645766840490352438155 (0xB853F5DE6682E527B01093AFE9EBEB8B)
Полное имя : D:\Video\Англичанин.1995.BDRip.720p by msltel.mkv
Формат : Matroska
Версия формата : Version 4 / Version 2
Размер файла : 3,90 Гбайт
Продолжительность : 1 ч. 35 м.
Общий поток : 5823 Кбит/сек
Название фильма : Rip by msltel
Дата кодирования : UTC 2017-03-09 02:53:07
Программа кодирования : mkvmerge v8.2.0 ('World of Adventure') 64bit
Библиотека кодирования : libebml v1.3.1 + libmatroska v1.4.2

Видео
Идентификатор : 1
Формат : AVC
Формат/Информация : Advanced Video Codec
Профиль формата : High@L4.1
Параметр CABAC формата : Да
Параметр ReFrames формата : 9 кадров
Идентификатор кодека : V_MPEG4/ISO/AVC
Продолжительность : 1 ч. 35 м.
Битрейт : 4348 Кбит/сек
Ширина : 1280 пикселей
Высота : 544 пикселя
Соотношение сторон : 2,35:1
Режим частоты кадров : Постоянный
Частота кадров : 24,000 кадра/сек
Цветовое пространство : YUV
Субдискретизация насыщенности : 4:2:0
Битовая глубина : 8 бит
Тип развёртки : Прогрессивная
Бит/(Пиксели*Кадры) : 0.260
Размер потока : 2,91 Гбайт (75%)
Библиотека кодирования : x264 core 146 r2538 121396c
Настройки программы : cabac=1 / ref=9 / deblock=1:-1:-1 / analyse=0x3:0x113 / me=umh / subme=11 / psy=1 / psy_rd=1.00:0.15 / mixed_ref=1 / me_range=32 / chroma_me=1 / trellis=2 / 8x8dct=1 / cqm=0 / deadzone=21,11 / fast_pskip=0 / chroma_qp_offset=-3 / threads=6 / lookahead_threads=1 / sliced_threads=0 / nr=0 / decimate=1 / interlaced=0 / bluray_compat=0 / constrained_intra=0 / bframes=12 / b_pyramid=2 / b_adapt=2 / b_bias=0 / direct=1 / weightb=1 / open_gop=0 / weightp=2 / keyint=230 / keyint_min=23 / scenecut=40 / intra_refresh=0 / rc_lookahead=40 / rc=crf / mbtree=0 / crf=17.5 / qcomp=0.60 / qpmin=0 / qpmax=69 / qpstep=4 / vbv_maxrate=62500 / vbv_bufsize=78125 / crf_max=0.0 / nal_hrd=none / filler=0 / ip_ratio=1.40 / pb_ratio=1.30 / aq=1:1.00
Язык : English
Default : Да
Forced : Нет

Аудио #1
Идентификатор : 2
Формат : AC-3
Формат/Информация : Audio Coding 3
Параметр Endianness формата : Big
Идентификатор кодека : A_AC3
Продолжительность : 1 ч. 35 м.
Вид битрейта : Постоянный
Битрейт : 192 Кбит/сек
Каналы : 2 канала
Расположение каналов : Front: L R
Частота : 48,0 КГц
Частота кадров : 31,250 кадров/сек (1536 spf)
Битовая глубина : 16 бит
Метод сжатия : С потерями
Размер потока : 132 Мбайт (3%)
Заголовок : MVO (kюбительский, ViruseProject)
Язык : Russian
ServiceKind/String : Complete Main
Default : Да
Forced : Нет

Аудио #2
Идентификатор : 3
Формат : AC-3
Формат/Информация : Audio Coding 3
Параметр Endianness формата : Big
Идентификатор кодека : A_AC3
Продолжительность : 1 ч. 35 м.
Вид битрейта : Постоянный
Битрейт : 192 Кбит/сек
Каналы : 2 канала
Расположение каналов : Front: L R
Частота : 48,0 КГц
Частота кадров : 31,250 кадров/сек (1536 spf)
Битовая глубина : 16 бит
Метод сжатия : С потерями
Размер потока : 132 Мбайт (3%)
Заголовок : AVO (Пётр Карцев)
Язык : Russian
ServiceKind/String : Complete Main
Default : Нет
Forced : Нет

Аудио #3
Идентификатор : 4
Формат : AC-3
Формат/Информация : Audio Coding 3
Параметр Endianness формата : Big
Идентификатор кодека : A_AC3
Продолжительность : 1 ч. 35 м.
Вид битрейта : Постоянный
Битрейт : 448 Кбит/сек
Каналы : 6 каналов
Расположение каналов : Front: L C R, Side: L R, LFE
Частота : 48,0 КГц
Частота кадров : 31,250 кадров/сек (1536 spf)
Битовая глубина : 16 бит
Метод сжатия : С потерями
Размер потока : 307 Мбайт (8%)
Заголовок : AVO (Юрий Сербин)
Язык : Russian
ServiceKind/String : Complete Main
Default : Нет
Forced : Нет

Аудио #4
Идентификатор : 5
Формат : AC-3
Формат/Информация : Audio Coding 3
Параметр Endianness формата : Big
Идентификатор кодека : A_AC3
Продолжительность : 1 ч. 35 м.
Вид битрейта : Постоянный
Битрейт : 192 Кбит/сек
Каналы : 2 канала
Расположение каналов : Front: L R
Частота : 48,0 КГц
Частота кадров : 31,250 кадров/сек (1536 spf)
Битовая глубина : 16 бит
Метод сжатия : С потерями
Размер потока : 132 Мбайт (3%)
Заголовок : любительский одноголосый, Jonh Doe
Язык : Russian
ServiceKind/String : Complete Main
Default : Нет
Forced : Нет

Аудио #5
Идентификатор : 6
Формат : AC-3
Формат/Информация : Audio Coding 3
Параметр Endianness формата : Big
Идентификатор кодека : A_AC3
Продолжительность : 1 ч. 35 м.
Вид битрейта : Постоянный
Битрейт : 448 Кбит/сек
Каналы : 6 каналов
Расположение каналов : Front: L C R, Side: L R, LFE
Частота : 48,0 КГц
Частота кадров : 31,250 кадров/сек (1536 spf)
Битовая глубина : 16 бит
Метод сжатия : С потерями
Размер потока : 307 Мбайт (8%)
Заголовок : original
Язык : English
ServiceKind/String : Complete Main
Default : Нет
Forced : Нет

Текст #1
Идентификатор : 7
Формат : UTF-8
Идентификатор кодека : S_TEXT/UTF8
Идентификатор кодека/Информация : UTF-8 Plain Text
Продолжительность : 1 ч. 32 м.
Битрейт : 107 бит/сек
ElementCount : 1172
Размер потока : 73,1 Кбайт (0%)
Заголовок : русские (для слабослышащих)
Default : Да
Forced : Нет

Текст #2
Идентификатор : 8
Формат : UTF-8
Идентификатор кодека : S_TEXT/UTF8
Идентификатор кодека/Информация : UTF-8 Plain Text
Продолжительность : 1 ч. 32 м.
Битрейт : 66 бит/сек
ElementCount : 1160
Размер потока : 45,1 Кбайт (0%)
Заголовок : английские (для слабослышащих)
Язык : English
Default : Нет
Forced : Нет

Меню
00:00:00.000 : :Chapter 01
00:07:54.290 : :Chapter 02
00:14:23.250 : :Chapter 03
00:20:01.541 : :Chapter 04
00:25:44.291 : :Chapter 05
00:34:01.291 : :Chapter 06
00:39:48.333 : :Chapter 07
00:48:23.208 : :Chapter 08
00:55:01.958 : :Chapter 09
01:01:09.250 : :Chapter 10
01:07:00.750 : :Chapter 11
01:14:18.291 : :Chapter 12
01:18:37.000 : :Chapter 13
01:25:39.500 : :Chapter 14
01:29:46.707 : :Chapter 15
pb.wtf



Скачать Англичанин, который поднялся на холм, а спустился с горы через торрент http://hostpic.gq/img/2017-03/09/bd4kjp5bvhgutxjys591ayfyf.jpg Скачать фильм Англичанин, который поднялся на холм, а спустился с горы через торрент бесплантно в хорошем качестве Описание: Двое англичан-картографов приезжают в 1917-ом году в уэльсскую деревушку и наталкиваются на местный холм Финон-гавр, которому не ... 10 10 4
Info! Золотая раздача, скачанное не засчитывается.
Торрент: Зарегистрирован [2017-03-09 07:03] · скачан: 55 раз
Статус: √ проверено
Размер: 3.9 GB
Как cкачать? Как скачать Англичанин, который поднялся на холм, а спустился с горы через торрент | qTorrent

% Раздел Тема Автор DL S | L
Фильмы [HD 720p, 1080p] (Хороший звук DUB, MVO) [ 10.01 GB ] Англичанин который поднялся на холм а спустился с горы / The Englishman Who Went Up a Hill But Came Down [1995 BDRip 1080p by msltel] MVO 2 x AVO VO msltel Скачать
1 | 0

28-11-2019 20:33  

Отключить всю рекламу на сайте

    Дорогой пользователь! Огромная просьба, поблагодарите релизера, оцените раздачу и оставьте свои комментарий, если Вы скачали Англичанин, который поднялся на холм, а спустился с горы через торрент бесплатно! Внесите свою лепту в развитие PiratBit!
    Комментировать посты могут только пользователи прошедшие не сложную регистрацию
    Показать сообщения:    

    Англичанин, который поднялся на холм, а спустился с горы через торрент
    Скачать бесплатно Англичанин, который поднялся на холм, а спустился с горы
    Англичанин, который поднялся на холм, а спустился с горы скачать торрент
    Англичанин, который поднялся на холм, а спустился с горы смотреть онлайн
    Cкачать фильм Англичанин, который поднялся на холм, а спустился с горы бесплатно
    Англичанин, который поднялся на холм, а спустился с горы скачать торрент в хорошем качестве
    Англичанин, который поднялся на холм, а спустился с горы смотреть онлайн бесплатно в хорошем качестве


    Вы не можете начинать темы
    Вы не можете отвечать на сообщения
    Вы не можете редактировать свои сообщения
    Вы не можете удалять свои сообщения
    Вы не можете голосовать в опросах
    Вы не можете прикреплять файлы к сообщениям
    Вы можете скачивать файлы