Всегда рабочее зеркало просто перед .vidak.icu напиши любое слово или цифру, Пример http://e5y.vidak.icu

>

7.4

iTunes

7.4

2 сезон

6.6

iTunes

1

7.4

2 сезон

7.2

iTunes

6.0

MVO

13

6.1

iTunes

8.3

Пиратка

30

ULTIMATE

pack

9.9

Лицензия

ВАЖНО

ИГРА 18+

pack

7.3

RePack

MK11

7.7

RePack

jed

7.8

RePack

fifa19

8.5

RePack

RDR2

RePack

NEED FOR SPEED™ PAYBACK

1 сезон

9 сезон

Бесстыжие 9 сезон

Все сериалы

все сериалы на PB.wtf

RePack

FAR CRY 5

Anonymous, добрый вечер, мы катастрофически не успеваем собрать деньги на оплату серверов, помогите нам пожалуйста 5,10,15р., для нас важна любая помощь . В качестве благодарности мы отключим Вам всю рекламу на сайте (укажите свой ник в строку Ваше имя)!

×
  
Magnet ссылка

Дрифтер / Drifter (Крис фон Хоффманн) [2016 г., ужасы, триллер, криминал, HDRip, Любительский одноголосый Xixidok] pb.wtf

Дрифтер через торрент pb.wtf

Размер: 1.37 GB | Добавлен: 4 года 10 мес. назад | Торрент скачан:97 раз
Смотреть онлайн Дрифтер | Скачать    Ребята, помогите собрать деньги на оплату серверов!!!

10-03-2017 04:02 Дрифтер Скачать торрент  

Дрифтер / Drifter
Год выпуска: 2016
Страна: США / Green Star Films
Жанр: ужасы, триллер, криминал
Продолжительность: 01:22:10
Перевод: Любительский одноголосый Xixidok
Субтитры: Английские (внешние)

Режиссер: Крис фон Хоффманн

rating

В ролях: Ария Эмори, Дрю Харвуд, Моник Розарио, Джейми МакКейб, Anthony Ficco, Ребекка Фрейзер, Joseph Atash, Рэкуэл Кацин, Джек Дэвис, Крэйг Роуз

Описание: Два безбашенных брата-грабителя заезжают не в тот городок и сталкиваются с ещё более отмороженной компанией.

Качество: HDRip
Формат: AVI
Видео кодек: XviD
Аудио кодек: AC3
Видео: Хvid, 1794 ,720x304 Kbps,25.000 fps
Аудио#1: Русский: AC3, 192 Kbps ,2 ch,44.1 KHz
Аудио#2: Английский: AC3, 384 Kbps .2 ch,44.1 KHz




General
Complete name : H:\релизы.торрентфайл\Drifter (2016)HDRip\Drifter.2016.avi
Format : AVI
Format/Info : Audio Video Interleave
Format profile : OpenDML
File size : 1.37 GiB
Duration : 1h 22mn
Overall bit rate : 2 387 Kbps
Movie name : Rip by Basma4i
Writing application : XviD4PSP 6.0 / 54.29.105

Video
ID : 0
Format : xvid
Codec ID : xvid
Duration : 1h 22mn
Bit rate : 1 794 Kbps
Width : 720 pixels
Height : 304 pixels
Display aspect ratio : 2.35:1
Frame rate : 25.000 fps
Bits/(Pixel*Frame) : 0.328
Stream size : 1.03 GiB (75%)

Audio #1
ID : 1
Format : AC-3
Format/Info : Audio Coding 3
Mode extension : CM (complete main)
Format settings, Endianness : Big
Codec ID : 2000
Duration : 1h 22mn
Bit rate mode : Constant
Bit rate : 192 Kbps
Channel(s) : 2 channels
Channel positions : Front: L R
Sampling rate : 44.1 KHz
Bit depth : 16 bits
Compression mode : Lossy
Stream size : 113 MiB (8%)
Alignment : Aligned on interleaves
Interleave, duration : 35 ms (0.87 video frame)
Title : xixidok

Audio #2
ID : 2
Format : AC-3
Format/Info : Audio Coding 3
Mode extension : CM (complete main)
Format settings, Endianness : Big
Codec ID : 2000
Duration : 1h 22mn
Bit rate mode : Constant
Bit rate : 384 Kbps
Channel(s) : 2 channels
Channel positions : Front: L R
Sampling rate : 44.1 KHz
Bit depth : 16 bits
Compression mode : Lossy
Stream size : 226 MiB (16%)
Alignment : Aligned on interleaves
Interleave, duration : 35 ms (0.87 video frame)

pb.wtf



Скачать Дрифтер через торрент http://i91.fastpic.ru/big/2017/0310/60/5e8d26d6648a1e3d9059f6ee8a7bec60.jpg Скачать, смотреть онлайн Дрифтер бесплантно в хорошем качестве Описание: Два безбашенных брата-грабителя заезжают не в тот городок и сталкиваются с ещё более отмороженной ... 10 10 7
Торрент: Зарегистрирован [2017-03-10 04:02] · скачан: 97 раз
Статус: T временная
Размер: 1.37 GB
Как cкачать? Как скачать Дрифтер через торрент | UTorrent

% Раздел Тема Автор DL S | L
Наши фильмы, до 2010 [ 162 MB ] Дрифтер / Drifter [2010 короткометражный экстрим DVDRip] privet1979 Скачать
1 | 0

28-11-2019 20:33  

Отключить всю рекламу на сайте

    Дорогой пользователь! Огромная просьба, поблагодарите релизера, оцените раздачу и оставьте свои комментарий, если Вы скачали Дрифтер через торрент бесплатно!
    Комментировать посты могут только пользователи прошедшие не сложную регистрацию
    Показать сообщения:    

    Дрифтер через торрент
    Скачать бесплатно Дрифтер
    Дрифтер скачать торрент
    Дрифтер смотреть онлайн
    Cкачать фильм Дрифтер бесплатно
    Дрифтер скачать торрент в хорошем качестве
    Дрифтер смотреть онлайн бесплатно в хорошем качестве


    Вы не можете начинать темы
    Вы не можете отвечать на сообщения
    Вы не можете редактировать свои сообщения
    Вы не можете удалять свои сообщения
    Вы не можете голосовать в опросах
    Вы не можете прикреплять файлы к сообщениям
    Вы можете скачивать файлы