Ссылка на приватное зеркало нашего сайта всего за 1$. Внимание количество ограничено!!!

2 сезон

iTunes

1 сезон

1

iTunes

iTunes

iTunes

1 сезон

RePack

30

ИГРА 18+

pack

ВАЖНО

!!Акция!!

Alien_RageХит недели

RePack

MK11
pack

Забери бонус

RePack

jed

!!Акция!!

Alien_Rage

RePack

fifa19

RePack

Assassins Creed: Odyssey

RePack

NEED FOR SPEED™ PAYBACK

4 сезон

9 сезон

Бесстыжие 9 сезон

Все сериалы

все сериалы на PB.wtf

RePack

FAR CRY 5
  

Отверженные / Les misérables (Робер Оссейн) [1982, драма, BDRip 720p by msltel] DVO pb.wtf

Отверженные через торрент pb.wtf

Размер: 8.04 GB | Добавлен: 3 года 7 мес. назад | Торрент скачан:11 раз
Скачать  

10-03-2017 06:58 Отверженные Скачать торрент  

Название: Отверженные
Оригинальное название: Les Misérables
Год выпуска: 1982
Страна: Франция, Германия (ФРГ)
Жанр: драма
Продолжительность: 03:00:14
Перевод: профессиональный двухголосый

Режиссёр: Робер Оссейн

В ролях: Лино Вентура, Жан Карме, Мишель Буке, Эвелин Буикс, Эммануэль Куртиль, Фрэнк Дэвид, Роже Анен, Кристиана Жан, Фернан Леду, Кандис Пату, Поль Пребуа, Робин Ренуччи, Кристоф Оден, Франсуаз Сенье, Луи Сенье, Дени Лаван, Жан-Роже Коссимон, Кристиан Бенедетти, Доминик Даврэ, Натали Нерваль, Ален Нобис, Робер Дальбан, Жан-Пьер Бернар, Бернар Дюмейн, Юбер Ноэль, Роуз Тьери, Доминик Зарди, Люк Делюмо, Поль Павель, Макс Монтавон

Описание: Франция начала XIX века. В небольшом городке Динь появляется Жан Вальжан, отбывший на каторге 19 лет. Он находит приют в доме епископа Мириэля и ночью крадёт столовое серебро из кухни. Полиция задерживает Вальжана с поличным при попытке скрыться. Епископ прощает его и напутствует с тем, чтобы тот встал на путь истинный. Потрясённый поступком священника, Жан пытается изменить образ жизни, но долгие годы ему приходится скрываться от полиции и своего прошлого… Фильм снят по мотивам романа Виктора Гюго «Отверженные» (Les Misérables, 1862).



Качество: BDRip 720p
Формат: MKV
Видео: MPEG-4 AVC, 6003 Кбит/с, 1180x720, 25 кадра/с
Аудио 1: русский, AC3, 192 kbps, 2 ch, 48 kHz [профессиональный двухголосый, ВГТРК]
Аудио 2: французский, AC3, 192 kbps, 2 ch, 48 kHz [оригинал]
Имеются неименованные главы/чаптеры.
Общее
Уникальный идентификатор : 241149536714371908726394189364676618276 (0xB56BB61D37D0FE0387D8700937E16824)
Полное имя : D:\Video\Отверженные.1982.BDRip.720p by msltel.mkv
Формат : Matroska
Версия формата : Version 4 / Version 2
Размер файла : 8,04 Гбайт
Продолжительность : 3 ч. 0 м.
Общий поток : 6389 Кбит/сек
Название фильма : Rip by msltel
Дата кодирования : UTC 2017-03-10 04:38:46
Программа кодирования : mkvmerge v8.2.0 ('World of Adventure') 64bit
Библиотека кодирования : libebml v1.3.1 + libmatroska v1.4.2

Видео
Идентификатор : 1
Формат : AVC
Формат/Информация : Advanced Video Codec
Профиль формата : High@L4.1
Параметр CABAC формата : Да
Параметр ReFrames формата : 9 кадров
Идентификатор кодека : V_MPEG4/ISO/AVC
Продолжительность : 3 ч. 0 м.
Битрейт : 6003 Кбит/сек
Ширина : 1180 пикселей
Высота : 720 пикселей
Соотношение сторон : 16:10
Режим частоты кадров : Постоянный
Частота кадров : 25,000 кадров/сек
Цветовое пространство : YUV
Субдискретизация насыщенности : 4:2:0
Битовая глубина : 8 бит
Тип развёртки : Прогрессивная
Бит/(Пиксели*Кадры) : 0.283
Размер потока : 7,56 Гбайт (94%)
Библиотека кодирования : x264 core 146 r2538 121396c
Настройки программы : cabac=1 / ref=9 / deblock=1:-1:-1 / analyse=0x3:0x113 / me=umh / subme=11 / psy=1 / psy_rd=1.00:0.15 / mixed_ref=1 / me_range=32 / chroma_me=1 / trellis=2 / 8x8dct=1 / cqm=0 / deadzone=21,11 / fast_pskip=0 / chroma_qp_offset=-3 / threads=6 / lookahead_threads=1 / sliced_threads=0 / nr=0 / decimate=1 / interlaced=0 / bluray_compat=0 / constrained_intra=0 / bframes=7 / b_pyramid=2 / b_adapt=2 / b_bias=0 / direct=1 / weightb=1 / open_gop=0 / weightp=2 / keyint=250 / keyint_min=25 / scenecut=40 / intra_refresh=0 / rc_lookahead=40 / rc=crf / mbtree=0 / crf=17.0 / qcomp=0.60 / qpmin=0 / qpmax=69 / qpstep=4 / vbv_maxrate=62500 / vbv_bufsize=78125 / crf_max=0.0 / nal_hrd=none / filler=0 / ip_ratio=1.40 / pb_ratio=1.30 / aq=1:1.00
Язык : French
Default : Да
Forced : Нет

Аудио #1
Идентификатор : 2
Формат : AC-3
Формат/Информация : Audio Coding 3
Параметр Endianness формата : Big
Идентификатор кодека : A_AC3
Продолжительность : 3 ч. 0 м.
Вид битрейта : Постоянный
Битрейт : 192 Кбит/сек
Каналы : 2 канала
Расположение каналов : Front: L R
Частота : 48,0 КГц
Частота кадров : 31,250 кадров/сек (1536 spf)
Битовая глубина : 16 бит
Метод сжатия : С потерями
Размер потока : 248 Мбайт (3%)
Заголовок : DVO (ВГТРК)
Язык : Russian
ServiceKind/String : Complete Main
Default : Да
Forced : Нет

Аудио #2
Идентификатор : 3
Формат : AC-3
Формат/Информация : Audio Coding 3
Параметр Endianness формата : Big
Идентификатор кодека : A_AC3
Продолжительность : 3 ч. 0 м.
Вид битрейта : Постоянный
Битрейт : 192 Кбит/сек
Каналы : 2 канала
Расположение каналов : Front: L R
Частота : 48,0 КГц
Частота кадров : 31,250 кадров/сек (1536 spf)
Битовая глубина : 16 бит
Метод сжатия : С потерями
Размер потока : 248 Мбайт (3%)
Заголовок : original
Язык : French
ServiceKind/String : Complete Main
Default : Нет
Forced : Нет

Меню
00:00:00.000 : :Chapter 01
00:29:59.839 : :Chapter 02
00:59:59.840 : :Chapter 03
01:29:59.600 : :Chapter 04
01:59:59.880 : :Chapter 05
02:29:59.799 : :Chapter 06
pb.wtf



Скачать Отверженные через торрент http://hostpic.gq/img/2017-03/10/nhr6k19ueny9k6tjxeu6398io.jpg Скачать фильм Отверженные через торрент бесплантно в хорошем качестве Описание: Франция начала XIX века. В небольшом городке Динь появляется Жан Вальжан, отбывший на каторге 19 лет. Он находит приют в доме ... 10 10 2
Info! Золотая раздача, скачанное не засчитывается.
Торрент: Зарегистрирован [2017-03-10 06:58] · скачан: 11 раз
Статус: √ проверено
Размер: 8.04 GB
Как cкачать? Как скачать Отверженные через торрент | qTorrent

% Раздел Тема Автор DL S | L
Фильмы [HD 720p, 1080p] (Хороший звук DUB, MVO) [ 18.01 GB ] Отверженные / Les misérables [1982 BDRip 1080p by msltel] DVO msltel Скачать
1 | 0
Классика зарубежного кино [ 7.88 GB ] Отверженные / Les Miserables [1995 военный DVD9] Dub + MVO + Original Fre Assasinca Скачать
1 | 0
Фильмы 2012 [ 1.37 GB ] Отверженные / Les Miserables [2012 мюзикл HDRip ] DUB [ лицензия ] Ворон Скачать
1 | 0
Фильмы 2012 [ 2.06 GB ] Отверженные / Les Miserables [2012 мюзикл HDRip ] DUB [ лицензия ] Ворон Скачать
1 | 0
Фильмы 2012 [ 1.52 GB ] Отверженные / Les Miserables [2012 мюзикл DVDScr Любительский (двухголосый] DVO slaventi-69 Скачать
1 | 0

28-11-2019 20:33  

Отключить всю рекламу на сайте

    Дорогой пользователь! Огромная просьба, поблагодарите релизера, оцените раздачу и оставьте свои комментарий, если Вы скачали Отверженные через торрент бесплатно! Внесите свою лепту в развитие PiratBit!
    Комментировать посты могут только пользователи прошедшие не сложную регистрацию
    Показать сообщения:    

    Отверженные через торрент
    Скачать бесплатно Отверженные
    Отверженные скачать торрент
    Отверженные смотреть онлайн
    Cкачать фильм Отверженные бесплатно
    Отверженные скачать торрент в хорошем качестве
    Отверженные смотреть онлайн бесплатно в хорошем качестве


    Вы не можете начинать темы
    Вы не можете отвечать на сообщения
    Вы не можете редактировать свои сообщения
    Вы не можете удалять свои сообщения
    Вы не можете голосовать в опросах
    Вы не можете прикреплять файлы к сообщениям
    Вы можете скачивать файлы