новый адрес пиратбит piratbit
Мега распродажа FORZA HORIZON 4 ULTIMATE+ВСЕ DLC+ОНЛАЙН всего за 499р. 349 руб. (супер цена). Внимание количество ограничено!!!

iTunes

1+1

iTunes

мы

iTunes

1

iTunes

Чернобыль

iTunes

Ральф против интернета

Лицензия

ПШазам

Лицензия

Игра престолов

Лицензия

30
pack

ВАЖНО

!!Акция!!

Alien_RageХит недели

RePack

Resident Evil 21

ИГРА 18+

pack

RePack

Metro:Exodus

!!Акция!!

Alien_Rage

RePack

fifa19

RePack

Assassins Creed: Odyssey

RePack

NEED FOR SPEED™ PAYBACK

3 сезон

9 сезон

Бесстыжие 9 сезон

Все сериалы

все сериалы на PB.wtf

RePack

FAR CRY 5
Ребята, катастрофически не хватает 1900р. для оплаты серверов за Октябрь (всвязи с блокировками трафик упал в 3 раза), 1-2р., выручайте.
  

Гуттаперчевый мальчик (Владимир Герасимов) [1957, СССР, драма, DVDRip от AVP Studio] pb.wtf

Гуттаперчевый мальчик через торрент pb.wtf

Размер: 742 MB | Добавлен: 2 года 8 мес. назад | Торрент скачан:20 раз
Скачать  

10-03-2017 09:46 Гуттаперчевый мальчик Скачать торрент  

Гуттаперчевый мальчик
Страна: СССР
Производство: Мосфильм

Жанр: драма
Год выпуска: 1957
Продолжительность: 01:12:01

Перевод: Не требуется
Cубтитры: нет
Оригинальная аудиодорожка: русский

Режиссер: Владимир Герасимов

В ролях:
Алексей Грибов, Михаил Названов, Саша Попов, Инна Фёдорова, Ольга Викландт, Иван Коваль-Самборский, Андрей Попов, Марианна Стриженова, Александра Попова, Марина Гуткович, Наташа Волкова, Витя Ларин...
Об актёрах подробней

Описание:
По мотивам одноименного рассказа Д.Григоровича.
О трагической судьбе маленького акробата.
После смерти матери Петя остался круглым сиротой и был отдан в учение к цирковому силачу Беккеру, жестокому и несправедливому человеку. Клоун Эдвардс жалел и любил мальчика, тайком обучал его настоящему цирковому искусству. Но мальчик, напуганный криками Беккера, во время представления сорвался с высоты и разбился насмерть.

Источник: DVD5 R5
Качество видео: DVDRip
Формат видео: AVI

Видео: 672x496 (4:3), 25 fps, XviD ~ 1239 kbps avg, 0.149 bit/pixel
Аудио: 48 kHz, Dolby Digital AC3 2.0, 192 kbps

Раздача от:
Общее
Полное имя : Guttaperchevyy.malchik.1957.DVDRip_[New-team]_by_AVP_Studio.avi
Формат : AVI
Формат/Информация : Audio Video Interleave
Размер файла : 742 Мбайт
Продолжительность : 1 ч. 12 м.
Общий поток : 1441 Кбит/сек
Программа кодирования : VirtualDubMod 1.5.10.3 | www.virtualdub-fr.org || (build 2550/release)
Библиотека кодирования : VirtualDubMod build 2550/release

Видео
Идентификатор : 0
Формат : MPEG-4 Visual
Профиль формата : Advanced Simple@L5
Параметр BVOP формата : 1
Параметр QPel формата : Нет
Параметр GMC формата : Без точки перехода
Параметр матрицы формата : Выборочная
Идентификатор кодека : XVID
Идентификатор кодека/Подсказка : XviD
Продолжительность : 1 ч. 12 м.
Битрейт : 1239 Кбит/сек
Ширина : 672 пикселя
Высота : 496 пикселей
Соотношение сторон : 4:3
Частота кадров : 25,000 кадров/сек
Цветовое пространство : YUV
Субдискретизация насыщенности : 4:2:0
Битовая глубина : 8 бит
Тип развёртки : Прогрессивная
Метод сжатия : С потерями
Бит/(Пиксели*Кадры) : 0.149
Размер потока : 638 Мбайт (86%)
Библиотека кодирования : XviD 73

Аудио
Идентификатор : 1
Формат : AC-3
Формат/Информация : Audio Coding 3
Расширение режима : CM (complete main)
Параметр Endianness формата : Big
Идентификатор кодека : 2000
Продолжительность : 1 ч. 12 м.
Вид битрейта : Постоянный
Битрейт : 192 Кбит/сек
Каналы : 2 канала
Расположение каналов : Front: L R
Частота : 48,0 КГц
Частота кадров : 31,250 кадров/сек (1536 spf)
Битовая глубина : 16 бит
Метод сжатия : С потерями
Размер потока : 98,9 Мбайт (13%)
Выравнивание : Разделение по промежуткам
Продолжительность промежутка : 40 мс. (1,00 видеокадр)
Время предзагрузки промежутка : 500 мс
pb.wtf



Скачать Гуттаперчевый мальчик через торрент http://i045.radikal.ru/1703/e4/3784f328b3fb.png Скачать фильм Гуттаперчевый мальчик через торрент бесплантно в хорошем качестве Описание:По мотивам одноименного рассказа Д.Григоровича.О трагической судьбе маленького акробата.После смерти матери Петя остался круглым ... 10 10 1
Info! Золотая раздача, скачанное не засчитывается.
Торрент: Зарегистрирован [2017-03-10 09:46] · скачан: 20 раз
Статус: √ проверено
Размер: 742 MB
Как cкачать? Как скачать Гуттаперчевый мальчик через торрент | qTorrent

% Раздел Тема Автор DL S | L
Кино СССР [ 744 MB ] Гуттаперчевый мальчик [1957 СССР DVDRip-AVC от AVP Studio] AVP Studio Скачать
1 | 0


>> Регистрируемся здесь <<






Отзывы и комментарии о схеме читаем и пишем здесь: ---> Отзывы и комментарии о схеме

Новые благодарочки в телеграм довольных пользователей:
скриншот   скриншот   скриншот   скриншот   скриншот
    Дорогой пользователь! Огромная просьба, поблагодарите релизера, оцените раздачу и оставьте свои комментарий, если Вы скачали Гуттаперчевый мальчик через торрент бесплатно! Внесите свою лепту в развитие PiratBit!
    Комментировать посты могут только пользователи прошедшие не сложную регистрацию
    Показать сообщения:    

    Гуттаперчевый мальчик через торрент
    Скачать бесплатно Гуттаперчевый мальчик
    Гуттаперчевый мальчик скачать торрент
    Гуттаперчевый мальчик смотреть онлайн
    Cкачать фильм Гуттаперчевый мальчик бесплатно
    Гуттаперчевый мальчик скачать торрент в хорошем качестве
    Гуттаперчевый мальчик смотреть онлайн бесплатно в хорошем качестве


    Вы не можете начинать темы
    Вы не можете отвечать на сообщения
    Вы не можете редактировать свои сообщения
    Вы не можете удалять свои сообщения
    Вы не можете голосовать в опросах
    Вы не можете прикреплять файлы к сообщениям
    Вы можете скачивать файлы