новый адрес
Мега распродажа FORZA HORIZON 4 ULTIMATE+ВСЕ DLC+ОНЛАЙН всего за 499р. 349 руб. (супер цена). Внимание количество ограничено!!!

iTunes

1+1

iTunes

мы

iTunes

1

iTunes

Чернобыль

iTunes

Ральф против интернета

Лицензия

ПШазам

Лицензия

Игра престолов

Лицензия

30
pack

ВАЖНО

!!Акция!!

Alien_RageХит недели

RePack

Resident Evil 21

ИГРА 18+

pack

RePack

Metro:Exodus

!!Акция!!

Alien_Rage

RePack

fifa19

RePack

Assassins Creed: Odyssey

RePack

NEED FOR SPEED™ PAYBACK

3 сезон

9 сезон

Бесстыжие 9 сезон

Все сериалы

все сериалы на PB.wtf

RePack

FAR CRY 5
Ребята, катастрофически не хватает 1900р. для оплаты серверов за Октябрь (всвязи с блокировками трафик упал в 3 раза), 1-2р., выручайте.
  

Гуттаперчевый мальчик (Владимир Герасимов) [1957, СССР, драма, DVDRip-AVC от AVP Studio] pb.wtf

Гуттаперчевый мальчик через торрент pb.wtf

Размер: 744 MB | Добавлен: 2 года 8 мес. назад | Торрент скачан:7 раз
Скачать  

10-03-2017 09:47 Гуттаперчевый мальчик Скачать торрент  

Гуттаперчевый мальчик
Страна: СССР
Производство: Мосфильм

Жанр: драма
Год выпуска: 1957
Продолжительность: 01:12:01

Перевод: Не требуется
Cубтитры: нет
Оригинальная аудиодорожка: русский

Режиссер: Владимир Герасимов

В ролях:
Алексей Грибов, Михаил Названов, Саша Попов, Инна Фёдорова, Ольга Викландт, Иван Коваль-Самборский, Андрей Попов, Марианна Стриженова, Александра Попова, Марина Гуткович, Наташа Волкова, Витя Ларин...
Об актёрах подробней

Описание:
По мотивам одноименного рассказа Д.Григоровича.
О трагической судьбе маленького акробата.
После смерти матери Петя остался круглым сиротой и был отдан в учение к цирковому силачу Беккеру, жестокому и несправедливому человеку. Клоун Эдвардс жалел и любил мальчика, тайком обучал его настоящему цирковому искусству. Но мальчик, напуганный криками Беккера, во время представления сорвался с высоты и разбился насмерть.

Источник: DVD5 R5
Качество видео: DVDRip-AVC
Формат видео: MKV

Видео: 680->766x574 (4:3), 25 fps, H264 ~ 1251 kbps avg, 0.128 bit/pixel
Аудио: 48 kHz, Dolby Digital AC3 2.0, 192 kbps

Раздача от:
Общее
Полное имя : Guttaperchevyy.malchik.1957.DVDRip-AVC_[New-team]_by_AVP_Studio.mkv
Формат : Matroska
Версия формата : Version 2
Размер файла : 744 Мбайт
Продолжительность : 1 ч. 12 м.
Общий поток : 1445 Кбит/сек
Дата кодирования : UTC 2017-03-07 14:25:40
Программа кодирования : mkvmerge v6.1.0 ('Old Devil') built on Mar 4 2013 09:10:42
Библиотека кодирования : libebml v1.3.0 + libmatroska v1.4.0

Видео
Идентификатор : 1
Формат : AVC
Формат/Информация : Advanced Video Codec
Профиль формата : High@L4.1
Параметр CABAC формата : Да
Параметр ReFrames формата : 10 кадров
Идентификатор кодека : V_MPEG4/ISO/AVC
Продолжительность : 1 ч. 12 м.
Битрейт : 1251 Кбит/сек
Ширина : 680 пикселей
Высота : 574 пикселя
Соотношение сторон : 4:3
Режим частоты кадров : Постоянный
Частота кадров : 25,000 кадров/сек
Цветовое пространство : YUV
Субдискретизация насыщенности : 4:2:0
Битовая глубина : 8 бит
Тип развёртки : Прогрессивная
Бит/(Пиксели*Кадры) : 0.128
Размер потока : 630 Мбайт (85%)
Библиотека кодирования : x264 core 148 r2597 e86f3a1
Настройки программы : cabac=1 / ref=10 / deblock=1:-2:-1 / analyse=0x3:0x113 / me=umh / subme=10 / psy=1 / psy_rd=1.00:0.00 / mixed_ref=1 / me_range=32 / chroma_me=1 / trellis=2 / 8x8dct=1 / cqm=0 / deadzone=21,11 / fast_pskip=1 / chroma_qp_offset=-2 / threads=6 / lookahead_threads=1 / sliced_threads=0 / nr=0 / decimate=0 / interlaced=0 / bluray_compat=0 / constrained_intra=0 / bframes=8 / b_pyramid=2 / b_adapt=2 / b_bias=0 / direct=3 / weightb=1 / open_gop=0 / weightp=2 / keyint=250 / keyint_min=25 / scenecut=40 / intra_refresh=0 / rc=2pass / mbtree=0 / bitrate=1251 / ratetol=1.0 / qcomp=0.60 / qpmin=0 / qpmax=69 / qpstep=4 / cplxblur=20.0 / qblur=0.5 / ip_ratio=1.40 / pb_ratio=1.30 / aq=1:1.00
Default : Да
Forced : Нет

Аудио
Идентификатор : 2
Формат : AC-3
Формат/Информация : Audio Coding 3
Расширение режима : CM (complete main)
Параметр Endianness формата : Big
Идентификатор кодека : A_AC3
Продолжительность : 1 ч. 12 м.
Вид битрейта : Постоянный
Битрейт : 192 Кбит/сек
Каналы : 2 канала
Расположение каналов : Front: L R
Частота : 48,0 КГц
Частота кадров : 31,250 кадров/сек (1536 spf)
Битовая глубина : 16 бит
Метод сжатия : С потерями
Размер потока : 98,9 Мбайт (13%)
Default : Да
Forced : Нет
pb.wtf



Скачать Гуттаперчевый мальчик через торрент http://i045.radikal.ru/1703/e4/3784f328b3fb.png Скачать фильм Гуттаперчевый мальчик через торрент бесплантно в хорошем качестве Описание:По мотивам одноименного рассказа Д.Григоровича.О трагической судьбе маленького акробата.После смерти матери Петя остался круглым ... 10 10 2
Info! Золотая раздача, скачанное не засчитывается.
Торрент: Зарегистрирован [2017-03-10 09:47] · скачан: 7 раз
Статус: √ проверено
Размер: 744 MB
Как cкачать? Как скачать Гуттаперчевый мальчик через торрент | qTorrent

% Раздел Тема Автор DL S | L
Кино СССР [ 742 MB ] Гуттаперчевый мальчик [1957 СССР DVDRip от AVP Studio] AVP Studio Скачать
1 | 0


>> Регистрируемся здесь <<






Отзывы и комментарии о схеме читаем и пишем здесь: ---> Отзывы и комментарии о схеме

Новые благодарочки в телеграм довольных пользователей:
скриншот   скриншот   скриншот   скриншот   скриншот
    Дорогой пользователь! Огромная просьба, поблагодарите релизера, оцените раздачу и оставьте свои комментарий, если Вы скачали Гуттаперчевый мальчик через торрент бесплатно! Внесите свою лепту в развитие PiratBit!
    Комментировать посты могут только пользователи прошедшие не сложную регистрацию
    Показать сообщения:    

    Гуттаперчевый мальчик через торрент
    Скачать бесплатно Гуттаперчевый мальчик
    Гуттаперчевый мальчик скачать торрент
    Гуттаперчевый мальчик смотреть онлайн
    Cкачать фильм Гуттаперчевый мальчик бесплатно
    Гуттаперчевый мальчик скачать торрент в хорошем качестве
    Гуттаперчевый мальчик смотреть онлайн бесплатно в хорошем качестве


    Вы не можете начинать темы
    Вы не можете отвечать на сообщения
    Вы не можете редактировать свои сообщения
    Вы не можете удалять свои сообщения
    Вы не можете голосовать в опросах
    Вы не можете прикреплять файлы к сообщениям
    Вы можете скачивать файлы