2 сезон

iTunes

1 сезон

1

iTunes

iTunes

iTunes

1 сезон

RePack

30

ИГРА 18+

pack

ВАЖНО

!!Акция!!

Alien_RageХит недели

RePack

MK11
pack

Забери бонус

RePack

jed

!!Акция!!

Alien_Rage

RePack

fifa19

RePack

Assassins Creed: Odyssey

RePack

NEED FOR SPEED™ PAYBACK

4 сезон

9 сезон

Бесстыжие 9 сезон

Все сериалы

все сериалы на PB.wtf

RePack

FAR CRY 5
  

Механик: Воскрешение / Mechanic: Resurrection (Деннис Ганзель) [2016, боевик, триллер, криминал, BDRip 1080p] Дубляж - [Лицензия] pb.wtf

Механик: Воскрешение через торрент pb.wtf

Размер: 5.91 GB | Добавлен: 3 года 7 мес. назад | Торрент скачан:873 раза
Скачать  

10-03-2017 11:42 Механик: Воскрешение Скачать торрент  

Механик: Воскрешение / Mechanic: Resurrection

Год выпуска: 2016
Страна: Франция, США
Жанр: боевик, триллер, криминал, приключения

Продолжительность: 01:38:38
Перевод: Дубляж - [Лицензия]
Субтитры: || Русские (форс., хардсаб) | Русские (полные) | Английские (полные) ||
Режиссер: Деннис Ганзель
В ролях:

Джейсон Стэйтем (Arthur Bishop), Джессика Альба (Gina), Томми Ли Джонс (Max Adams), Мишель Йео (Mei), Сэм Хэзелдайн (Crain), Джон Ченатьемпо (Jeremy), Тоби Эддингтон (Adrian Cook), Феми Элуфоводжо (Krill), Антео Квинтавалле (Frank), Ейяин Рхатха Пхонгам (Courier), Бонни З. Хатчинсон (Headmistress), Стюарт Торп (Rio Thug #1)
Описание:
Артура Бишопа, давно оставившего свое криминальное ремесло, вынуждают снова вступить в игру. Чтобы похитители вернули его возлюбленную, он должен сделать то, что у него получается лучше всего: от него требуется совершить три убийства, идеально обставленных как несчастные случаи.
Рейтинг:

MPAA: R - Лицам до 17 лет обязательно присутствие взрослого
Качество: BDRip 1080p
Формат: MKV
Видео: AVC, 1920x804 (2.40:1), 7300 kbps, 23,976 fps, 0,197 bpp
Аудио №1: русский / AC3 / 5.1 / 48 kHz / 640 kbps / |Дубляж, Лицензия|
Аудио №2: английский / AC3 / 5.1 / 48 kHz / 640 kbps /
Навигация по главам: есть
Релиз от:
General
Unique ID : 181689582988103721635363143727147832912 (0x88B0240E7BCBCAF59A077CA697BAD650)
Complete name : E:\Mechanic.Resurrection.2016.BDRip.1080p.(qqss44).mkv
Format : Matroska
Format version : Version 2
File size : 5.91 GiB
Duration : 1 h 38 min
Overall bit rate : 8 574 kb/s
Movie name : Mechanic.Resurrection.(2016).BDRip.1080p.(qqss44)
Encoded date : UTC 2017-03-10 09:06:43
Writing application : mkvmerge v5.8.0 ('No Sleep / Pillow') built on Sep 2 2012 15:37:04
Writing library : libebml v1.2.3 + libmatroska v1.3.0

Video
ID : 1
Format : AVC
Format/Info : Advanced Video Codec
Format profile : High@L4.1
Format settings, CABAC : Yes
Format settings, ReFrames : 5 frames
Codec ID : V_MPEG4/ISO/AVC
Duration : 1 h 38 min
Bit rate : 7 300 kb/s
Width : 1 920 pixels
Height : 804 pixels
Display aspect ratio : 2.40:1
Frame rate mode : Constant
Frame rate : 23.976 (24000/1001) FPS
Color space : YUV
Chroma subsampling : 4:2:0
Bit depth : 8 bits
Scan type : Progressive
Bits/(Pixel*Frame) : 0.197
Stream size : 4.91 GiB (83%)
Title : Mechanic.Resurrection.(2016).BDRip.1080p.(qqss44)
Writing library : x264 core 148 r2721kMod 72d53ab
Encoding settings : cabac=1 / ref=5 / deblock=1:-3:-3 / analyse=0x3:0x133 / me=umh / subme=11 / psy=1 / fade_compensate=0.00 / psy_rd=1.00:0.00 / mixed_ref=1 / me_range=32 / chroma_me=1 / trellis=2 / 8x8dct=1 / cqm=0 / deadzone=21,11 / fast_pskip=0 / chroma_qp_offset=-2 / threads=12 / lookahead_threads=2 / sliced_threads=0 / nr=0 / decimate=0 / interlaced=0 / bluray_compat=0 / constrained_intra=0 / fgo=0 / bframes=9 / b_pyramid=2 / b_adapt=2 / b_bias=0 / direct=3 / weightb=1 / open_gop=0 / weightp=2 / keyint=240 / keyint_min=23 / scenecut=40 / intra_refresh=0 / rc=2pass / mbtree=0 / bitrate=7300 / ratetol=1.0 / qcomp=0.60 / qpmin=0 / qpmax=69 / qpstep=4 / cplxblur=20.0 / qblur=0.5 / ip_ratio=1.40 / pb_ratio=1.30 / aq=3:0.80
Language : English
Default : Yes
Forced : No

Audio #1
ID : 2
Format : AC-3
Format/Info : Audio Coding 3
Mode extension : CM (complete main)
Format settings, Endianness : Big
Codec ID : A_AC3
Duration : 1 h 38 min
Bit rate mode : Constant
Bit rate : 640 kb/s
Channel(s) : 6 channels
Channel positions : Front: L C R, Side: L R, LFE
Sampling rate : 48.0 kHz
Frame rate : 31.250 FPS (1536 spf)
Compression mode : Lossy
Stream size : 452 MiB (7%)
Title : DUB | DD5.1 @ 640 kbps
Language : Russian
Default : Yes
Forced : No

Audio #2
ID : 3
Format : AC-3
Format/Info : Audio Coding 3
Mode extension : CM (complete main)
Format settings, Endianness : Big
Codec ID : A_AC3
Duration : 1 h 38 min
Bit rate mode : Constant
Bit rate : 640 kb/s
Channel(s) : 6 channels
Channel positions : Front: L C R, Side: L R, LFE
Sampling rate : 48.0 kHz
Frame rate : 31.250 FPS (1536 spf)
Compression mode : Lossy
Stream size : 452 MiB (7%)
Title : Original | DD5.1 @ 640 kbps
Language : English
Default : No
Forced : No

Text #1
ID : 4
Format : UTF-8
Codec ID : S_TEXT/UTF8
Codec ID/Info : UTF-8 Plain Text
Title : Full
Language : Russian
Default : No
Forced : No

Text #2
ID : 5
Format : UTF-8
Codec ID : S_TEXT/UTF8
Codec ID/Info : UTF-8 Plain Text
Title : Full
Language : English
Default : No
Forced : No

Menu
00:00:00.000 : en:00:00:00.000
00:06:34.936 : en:00:06:34.936
00:11:51.336 : en:00:11:51.336
00:18:31.277 : en:00:18:31.277
00:26:04.897 : en:00:26:04.897
00:31:57.540 : en:00:31:57.540
00:38:31.267 : en:00:38:31.267
00:43:35.696 : en:00:43:35.696
00:49:23.210 : en:00:49:23.210
00:54:20.382 : en:00:54:20.382
01:00:09.856 : en:01:00:09.856
01:05:50.446 : en:01:05:50.446
01:10:25.429 : en:01:10:25.429
01:14:52.363 : en:01:14:52.363
01:21:04.860 : en:01:21:04.860
01:31:38.785 : en:01:31:38.785
pb.wtf



Скачать Механик: Воскрешение через торрент http://i6.imageban.ru/out/2017/03/10/febc0fa28251ee1868da98c21ec78932.png Скачать фильм Механик: Воскрешение через торрент бесплантно в хорошем качестве Описание: Артура Бишопа, давно оставившего свое криминальное ремесло, вынуждают снова вступить в игру. Чтобы похитители вернули его ... 9.2 10 13
Info! Золотая раздача, скачанное не засчитывается.
Торрент: Зарегистрирован [2017-03-10 11:42] · скачан: 873 раз
Статус: √ проверено
Размер: 5.91 GB
Как cкачать? Как скачать Механик: Воскрешение через торрент | qTorrent

% Раздел Тема Автор DL S | L
Фильмы (HD 720p, 1080p) (48-60 fps) [ 2.46 GB ] Механик: Воскрешение / Mechanic: Resurrection [2016 BDRip 720p / 60 FPS ] от R.G. HD-Films slaventi-69 Скачать
1 | 0
Ultra HD (UHD: 2K, 4K, 8K) — видео сверхвысокой чёткости [ 62.52 GB ] Механик: Воскрешение / Mechanic: Resurrection [2016 UHD BDRemux 2160p] DUB [] +MVO+2xAVO bober100 Скачать
1 | 0
Фильмы (Blu-ray, BD-Remux, HDDVD) [ 31.42 GB ] Механик: Воскрешение / Mechanic: Resurrection [2016 BD Remux 1080p] [] DUB+AVO bober100 Скачать
1 | 0
R.G. Resident & PiratVoice - Фильмы, Видео [ 2.23 GB ] Механик: Воскрешение / Mechanic: Resurrection [2016 BDRip-AVC] - R.G.Resident schultz Скачать
1 | 0
Фильмы 2016 [DVDrip, WEB-DLRip, HDrip] (DUB, MVO) [ 1.46 GB ] Механик: Воскрешение / Mechanic: Resurrection [2016 BDRip] - [] Twi7ter Скачать
3 | 0
Фильмы (Blu-ray, BD-Remux, HDDVD) [ 18.8 GB ] Механик: Воскрешение / Mechanic: Resurrection [2016 Blu-Ray 1080p] / RUS Transfer / / -Lexx- Скачать
1 | 0
Фильмы 2016 [DVDrip, WEB-DLRip, HDrip] (DUB, MVO) [ 744 MB ] Механик: Воскрешение / Mechanic: Resurrection [2016 BDRip-AVC [BD RUS]] Skandar2019 Скачать
1 | 0

28-11-2019 20:33  

Отключить всю рекламу на сайте

09-06-2017 08:20 Механик: Воскрешение Скачать торрент  

кино сказочное, но мне понравилосьpb.wtf



    Дорогой пользователь! Огромная просьба, поблагодарите релизера, оцените раздачу и оставьте свои комментарий, если Вы скачали Механик: Воскрешение через торрент бесплатно! Внесите свою лепту в развитие PiratBit!
    Комментировать посты могут только пользователи прошедшие не сложную регистрацию
    Показать сообщения:    

    Механик: Воскрешение через торрент
    Скачать бесплатно Механик: Воскрешение
    Механик: Воскрешение скачать торрент
    Механик: Воскрешение смотреть онлайн
    Cкачать фильм Механик: Воскрешение бесплатно
    Механик: Воскрешение скачать торрент в хорошем качестве
    Механик: Воскрешение смотреть онлайн бесплатно в хорошем качестве


    Вы не можете начинать темы
    Вы не можете отвечать на сообщения
    Вы не можете редактировать свои сообщения
    Вы не можете удалять свои сообщения
    Вы не можете голосовать в опросах
    Вы не можете прикреплять файлы к сообщениям
    Вы можете скачивать файлы