Ссылка на приватное зеркало нашего сайта всего за 1$. Внимание количество ограничено!!!

2 сезон

iTunes

1 сезон

1

2 сезон

2 сезон

iTunes

1 сезон

RePack

30

Новинка

ВАЖНО

ИГРА 18+

pack

RePack

MK11
pack

Забери бонус

RePack

jed

!!Акция!!

Alien_Rage

RePack

fifa19

RePack

Assassins Creed: Odyssey

RePack

NEED FOR SPEED™ PAYBACK

4 сезон

9 сезон

Бесстыжие 9 сезон

Все сериалы

все сериалы на PB.wtf

RePack

FAR CRY 5
  

Оэй / ОА / The OA / Сезон: 1 / Серии 1-8 из 8 (Зал Батманглидж / Zal Batmanglij) [2016 , США, фантастика, фэнтези, драма, WEBRip-AVC] MVO [BaibaKo] pb.wtf

Оэй через торрент pb.wtf

Размер: 8.04 GB | Добавлен: 3 года 7 мес. назад | Торрент скачан:34 раза
Скачать  

11-03-2017 01:56 Оэй Скачать торрент  

Оэй / ОА / The OA
«Get in»


  • Год выпуска: 2016
  • Страна: США
  • Жанр: фантастика, фэнтези, драма, детектив
  • Продолжительность: 01:08:20 (Серия)
  • Перевод: Профессиональный многоголосый [BaibaKo]
  • Режиссер: Зал Батманглидж / Zal Batmanglij
  • В ролях:

    Эмори Коэн (Homer), Скотт Уилсон (Abel Johnson), Элис Крайдж (Nancy Johnson), Патрик Гибсон (Steve Winchell), Брендан Мейер (Jesse), Брэндон Переа (French), Иэн Александр (Buck Vu), Джейсон Айзекс (Dr. Hunter Aloysius «Hap» Percy), Брит Марлинг (Prairie Johnson), Филлис Смит (Betty Broderick-Allen), Уилл Брилл (Scott Brown), Шэрон Ван Эттен (Rachel)


  • Девушка по имени Прерия Джонсон возвращается домой через семь лет после загадочного исчезновения. Что с ней произошло, никто не знает, а сама девушка не рассказывает, лишь утверждает, что все это время была поблизости. Ещё больше интриги добавляет чудесное прозрение девушки - до исчезновения она была слепой, поэтому членов семьи она узнает только на ощупь.
  • Рейтинг:



  • Качество: WEBRip-AVC
  • Формат: :MPEG-4
  • Видео кодек: AVC
  • Аудио кодек: AC3
  • Видео: 1024x576 (16:9), 2000 kbps, 23,976 fps, 0,141 bpp
  • Аудио №1: русский / 5.1 / 48 kHz / 384 kbps / 16 bit |[BaibaKo]|
  • Аудио №2: английский / 5.1 / 48 kHz / 384 kbps / 16 bit
  • Релиз от: GEKADOL

    Внимание! Раздача ведётся путём добавления новых серий; при каждом добавлении создаётся новый торрент. Чтобы начать докачку новой серии, пользователям необходимо сделать следующее:
    (1) остановить скачивание,
    (2) удалить старый торрент у себя из клиента (старые серии удалять не надо),
    (3) скачать новый торрент и запустить его у себя в клиенте вместо старого, при этом указать клиенту путь в старую папку куда и должно происходить скачивание новых серий.
    Ваш клиент при этом должен произвести хеширование (проверку) старой папки (если не производит сам - помогите ему сделать это), и будет докачивать только те серии которых у вас ещё нет. Старые серии при этом не удаляются, а продолжают раздаваться!
    Eсли вы уже удалили старые серии, то предотвратить повторную закачку старых серий можно, отжав галочку в соответствующих местах при запуске нового торрента. По возможности, желательно не удалять старые серии как можно дольше чтобы релизёр не столько продолжал раздавать старые серии, а смог сконцентрироваться на новых.

    General
    Complete name : H:\Оэй (The OA 1)\The.OA.s01e01.WEBRip-AVC.Rus.Eng.BaibaKo.tv.mp4
    Format : MPEG-4
    Format profile : Base Media
    Codec ID : isom (isom/iso2/avc1/mp41)
    File size : 1.32 GiB
    Duration : 1 h 8 min
    Overall bit rate : 2 770 kb/s
    Writing application : XviD4PSP 7.0.363 DAILY
    HDVideo : Yes
    encoding_info : MATROSKA / WEBM > MP4 Произвольный / H264 > X264 CBR 2000kbps HQ / AC3 > AC3 CBR 384kbps / AC3 > AC3 CBR 384kbps

    Video
    ID : 1
    Format : AVC
    Format/Info : Advanced Video Codec
    Format profile : High@L4.1
    Format settings, CABAC : Yes
    Format settings, ReFrames : 4 frames
    Codec ID : avc1
    Codec ID/Info : Advanced Video Coding
    Duration : 1 h 8 min
    Bit rate : 2 000 kb/s
    Width : 1 024 pixels
    Height : 576 pixels
    Display aspect ratio : 16:9
    Frame rate mode : Constant
    Frame rate : 23.976 (24000/1001) FPS
    Color space : YUV
    Chroma subsampling : 4:2:0
    Bit depth : 8 bits
    Scan type : Progressive
    Bits/(Pixel*Frame) : 0.141
    Stream size : 976 MiB (72%)
    Writing library : x264 core 148 r2762M 90a61ec
    Encoding settings : cabac=1 / ref=3 / deblock=1:-1:-1 / analyse=0x3:0x133 / me=hex / subme=7 / psy=1 / psy_rd=1.00:0.20 / mixed_ref=1 / me_range=16 / chroma_me=1 / trellis=1 / 8x8dct=1 / cqm=0 / deadzone=21,11 / fast_pskip=1 / chroma_qp_offset=-3 / threads=5 / lookahead_threads=1 / sliced_threads=0 / nr=0 / decimate=1 / interlaced=0 / bluray_compat=0 / constrained_intra=0 / bframes=3 / b_pyramid=2 / b_adapt=2 / b_bias=0 / direct=3 / weightb=1 / open_gop=0 / weightp=2 / keyint=230 / keyint_min=23 / scenecut=40 / intra_refresh=0 / rc_lookahead=40 / rc=cbr / mbtree=1 / bitrate=2000 / ratetol=1.0 / qcomp=0.60 / qpmin=0 / qpmax=69 / qpstep=4 / vbv_maxrate=2000 / vbv_bufsize=30000 / nal_hrd=none / filler=0 / ip_ratio=1.40 / aq=1:1.00
    Color range : Limited
    Color primaries : BT.709
    Transfer characteristics : BT.709
    Matrix coefficients : BT.709

    Audio #1
    ID : 2
    Format : AC-3
    Format/Info : Audio Coding 3
    Mode extension : CM (complete main)
    Format settings, Endianness : Big
    Codec ID : ac-3
    Duration : 1 h 8 min
    Bit rate mode : Constant
    Bit rate : 384 kb/s
    Channel(s) : 6 channels
    Channel positions : Front: L C R, Side: L R, LFE
    Sampling rate : 48.0 kHz
    Frame rate : 31.250 FPS (1536 spf)
    Bit depth : 16 bits
    Compression mode : Lossy
    Stream size : 188 MiB (14%)
    Title : Surround / Surround
    Language : Russian
    Default : Yes
    Alternate group : 1

    Audio #2
    ID : 3
    Format : AC-3
    Format/Info : Audio Coding 3
    Mode extension : CM (complete main)
    Format settings, Endianness : Big
    Codec ID : ac-3
    Duration : 1 h 8 min
    Bit rate mode : Constant
    Bit rate : 384 kb/s
    Channel(s) : 6 channels
    Channel positions : Front: L C R, Side: L R, LFE
    Sampling rate : 48.0 kHz
    Frame rate : 31.250 FPS (1536 spf)
    Bit depth : 16 bits
    Compression mode : Lossy
    Stream size : 188 MiB (14%)
    Title : Surround / Surround
    Language : English
    Default : No
    Alternate group : 1



    Скриншоты:
    скриншот   скриншот   скриншот   скриншот   скриншот   скриншот   скриншот   скриншот  

    Раздача ведётся путём добавления новых серий. Добавлена 8 серия (28.03.2017).Просьба перекачать торрент файл.

    pb.wtf



  • Скачать Оэй через торрент http://i91.fastpic.ru/big/2017/0311/75/dead29992aa259b978565600074ad175.jpg Скачать фильм Оэй через торрент бесплантно в хорошем качестве qw.png Девушка по имени Прерия Джонсон возвращается домой через семь лет после загадочного исчезновения. Что с ней произошло, никто не ... 10 10 5
    Info! Золотая раздача, скачанное не засчитывается.
    Торрент: Зарегистрирован [2017-03-28 11:26] · скачан: 34 раз
    Статус: √ проверено
    Размер: 8.04 GB
    Как cкачать? Как скачать Оэй через торрент | qTorrent



    Последний раз редактировалось: GEKADOL (2017-03-28 11:26), всего редактировалось 1 раз

    28-11-2019 20:33  

    Отключить всю рекламу на сайте

    21-03-2017 07:24 Оэй Скачать торрент  

    Уже ш вышел и просмотрен весьpb.wtf



    28-03-2017 13:10 Оэй Скачать торрент  

    Жаль потерянного времени.Концовка вообще... pb.wtf



    28-03-2017 15:14 Оэй Скачать торрент  

    Тем кто не смотрел, а собирается, подскажу, убийца-садовник!pb.wtf



      Дорогой пользователь! Огромная просьба, поблагодарите релизера, оцените раздачу и оставьте свои комментарий, если Вы скачали Оэй через торрент бесплатно! Внесите свою лепту в развитие PiratBit!
      Комментировать посты могут только пользователи прошедшие не сложную регистрацию
      Показать сообщения:    

      Оэй через торрент
      Скачать бесплатно Оэй
      Оэй скачать торрент
      Оэй смотреть онлайн
      Cкачать фильм Оэй бесплатно
      Оэй скачать торрент в хорошем качестве
      Оэй смотреть онлайн бесплатно в хорошем качестве


      Вы не можете начинать темы
      Вы не можете отвечать на сообщения
      Вы не можете редактировать свои сообщения
      Вы не можете удалять свои сообщения
      Вы не можете голосовать в опросах
      Вы не можете прикреплять файлы к сообщениям
      Вы можете скачивать файлы