Ссылка на приватное зеркало нашего сайта всего за 1$. Внимание количество ограничено!!!

2 сезон

iTunes

1 сезон

1

2 сезон

2 сезон

iTunes

1 сезон

RePack

30

Ultimate

ВАЖНО

ИГРА 18+

pack

RePack

MK11
pack

Забери бонус

RePack

jed

!!Акция!!

Alien_Rage

RePack

fifa19

RePack

Assassins Creed: Odyssey

RePack

NEED FOR SPEED™ PAYBACK

4 сезон

9 сезон

Бесстыжие 9 сезон

Все сериалы

все сериалы на PB.wtf

RePack

FAR CRY 5
  

Шпионы по соседству / Keeping Up with the Joneses (Грег Моттола) [2016, боевик, комедия, BDRemux 1080p] Дубляж - [Лицензия] pb.wtf

Шпионы по соседству через торрент pb.wtf

Размер: 24.24 GB | Добавлен: 3 года 8 мес. назад | Торрент скачан:47 раз
Скачать  

11-03-2017 06:44 Шпионы по соседству Скачать торрент  

Шпионы по соседству / Keeping Up with the Joneses

Год выпуска: 2016
Страна: США
Жанр: боевик, комедия

Продолжительность: 01:45:20
Перевод: Дубляж - [Лицензия]
Субтитры: русские (Forced [iTunes]), русские (Full [iTunes]), английские (Full [iTunes])
Режиссер: Грег Моттола
В ролях:

Зак Галифианакис (Jeff Gaffney), Айла Фишер (Karen Gaffney), Джон Хэмм (Tim Jones), Галь Гадот (Natalie Jones), Пэттон Освальт (Scorpion), Минг Жао (Scorpion's Girlfriend), Мэтт Уолш (Dan Craverston), Мэрибет Монро (Meg Craverston), Майкл Лью (Yang), Кевин Данн (Carl Pronger), Дайо Абаниканда (Cool Man), Генри Бостон (Patrick)
Описание:
Супружеская пара из пригорода оказывается втянутой в международный шпионский заговор, когда обнаруживает, что их, казалось бы, идеальные новые соседи являются правительственными агентами.
Рейтинг:

MPAA: PG-13 - Детям до 13 лет просмотр не желателен
Качество: BDRemux 1080p
Формат: MKV
Видео: AVC, 1920x1080, 27.4 Мbit/s, 23,976 fps
Аудио №1: русский / DTS / 5.1 / 48 kHz / 768 kbps / 24 bit |Дубляж, Лицензия|
Аудио №2: русский / AC3 / 5.1 / 48 kHz / 448 kbps / |Дубляж, Лицензия|
Аудио №3: английский / DTS-HD MA / 7.1 / 48 kHz / 4309 kbps / 24 bit
Навигация по главам: есть
Релиз от:
General
Unique ID : 190391623841118037976096660755431758757 (0x8F3C17CBAD45A57EBD7EE7CF5F9B1BA5)
Complete name : F:VideoKeeping.Up.With.The.Joneses.2016.D.BDREMUX.1080p.ExKinoRay.mkv
Format : Matroska
Format version : Version 4 / Version 2
File size : 24.2 GiB
Duration : 1 h 45 min
Overall bit rate mode : Variable
Overall bit rate : 33.0 Mb/s
Encoded date : UTC 2017-03-11 05:40:55
Writing application : mkvmerge v8.3.0 ('Over the Horizon') 64bit
Writing library : libebml v1.3.1 + libmatroska v1.4.2

Video
ID : 1
Format : AVC
Format/Info : Advanced Video Codec
Format profile : High@L4.1
Format settings, CABAC : Yes
Format settings, ReFrames : 4 frames
Codec ID : V_MPEG4/ISO/AVC
Duration : 1 h 45 min
Bit rate mode : Variable
Bit rate : 27.4 Mb/s
Maximum bit rate : 29.8 Mb/s
Width : 1 920 pixels
Height : 1 080 pixels
Display aspect ratio : 16:9
Frame rate mode : Constant
Frame rate : 23.976 (24000/1001) FPS
Color space : YUV
Chroma subsampling : 4:2:0
Bit depth : 8 bits
Scan type : Progressive
Bits/(Pixel*Frame) : 0.552
Stream size : 20.2 GiB (83%)
Language : English
Default : Yes
Forced : No

Audio #1
ID : 2
Format : DTS
Format/Info : Digital Theater Systems
Mode : 16
Format settings, Endianness : Big
Codec ID : A_DTS
Duration : 1 h 45 min
Bit rate mode : Constant
Bit rate : 768 kb/s
Channel(s) : 6 channels
Channel positions : Front: L C R, Side: L R, LFE
Sampling rate : 48.0 kHz
Frame rate : 93.750 FPS (512 spf)
Bit depth : 24 bits
Compression mode : Lossy
Delay relative to video : -17 ms
Stream size : 579 MiB (2%)
Title : Dub [License]
Language : Russian
Default : Yes
Forced : No

Audio #2
ID : 3
Format : AC-3
Format/Info : Audio Coding 3
Mode extension : CM (complete main)
Format settings, Endianness : Big
Codec ID : A_AC3
Duration : 1 h 45 min
Bit rate mode : Constant
Bit rate : 448 kb/s
Channel(s) : 6 channels
Channel positions : Front: L C R, Side: L R, LFE
Sampling rate : 48.0 kHz
Frame rate : 31.250 FPS (1536 spf)
Bit depth : 16 bits
Compression mode : Lossy
Delay relative to video : -17 ms
Stream size : 338 MiB (1%)
Title : Dub [License]
Language : Russian
Default : No
Forced : No

Audio #3
ID : 4
Format : DTS
Format/Info : Digital Theater Systems
Format profile : MA / ES Matrix / Core
Mode : 16
Format settings, Endianness : Big
Codec ID : A_DTS
Duration : 1 h 45 min
Bit rate mode : Variable / Constant / Constant
Bit rate : 4 309 kb/s / 1 509 kb/s / 1 509 kb/s
Channel(s) : 8 channels / 7 channels / 6 channels
Channel positions : Front: L C R, Side: L R, Back: L R, LFE / Front: L C R, Side: L R, Back: C, LFE / Front: L C R, Side: L R, LFE
Sampling rate : 48.0 kHz
Frame rate : 93.750 FPS (512 spf)
Bit depth : 24 bits
Compression mode : Lossless / Lossy / Lossy
Stream size : 3.17 GiB (13%)
Title : Original
Language : English
Default : No
Forced : No

Text #1
ID : 5
Format : UTF-8
Codec ID : S_TEXT/UTF8
Codec ID/Info : UTF-8 Plain Text
Duration : 1 h 44 min
Bit rate : 1 b/s
Count of elements : 20
Stream size : 1.11 KiB (0%)
Title : Forced [iTunes]
Language : Russian
Default : Yes
Forced : No

Text #2
ID : 6
Format : UTF-8
Codec ID : S_TEXT/UTF8
Codec ID/Info : UTF-8 Plain Text
Duration : 1 h 44 min
Bit rate : 131 b/s
Count of elements : 2007
Stream size : 100 KiB (0%)
Title : Full [iTunes]
Language : Russian
Default : No
Forced : No

Text #3
ID : 7
Format : UTF-8
Codec ID : S_TEXT/UTF8
Codec ID/Info : UTF-8 Plain Text
Duration : 1 h 36 min
Bit rate : 92 b/s
Count of elements : 1863
Stream size : 65.2 KiB (0%)
Title : Full [iTunes]
Language : English
Default : No
Forced : No

Menu
00:00:00.000 : en:00:00:00.000
00:03:43.473 : en:00:03:43.473
00:06:41.651 : en:00:06:41.651
00:09:55.845 : en:00:09:55.845
00:13:28.182 : en:00:13:28.182
00:17:06.025 : en:00:17:06.025
00:21:07.933 : en:00:21:07.933
00:26:02.311 : en:00:26:02.311
00:30:07.514 : en:00:30:07.514
00:33:56.743 : en:00:33:56.743
00:37:43.761 : en:00:37:43.761
00:40:59.457 : en:00:40:59.457
00:45:35.149 : en:00:45:35.149
00:49:00.312 : en:00:49:00.312
00:52:35.152 : en:00:52:35.152
00:55:59.189 : en:00:55:59.189
01:00:50.230 : en:01:00:50.230
01:04:33.244 : en:01:04:33.244
01:08:47.665 : en:01:08:47.665
01:12:04.654 : en:01:12:04.654
01:15:58.554 : en:01:15:58.554
01:19:31.809 : en:01:19:31.809
01:22:46.545 : en:01:22:46.545
01:25:43.972 : en:01:25:43.972
01:29:02.295 : en:01:29:02.295
01:31:44.874 : en:01:31:44.874
01:34:18.528 : en:01:34:18.528
01:37:32.680 : en:01:37:32.680
pb.wtf



Скачать Шпионы по соседству через торрент http://i6.imageban.ru/out/2017/03/10/c45c25999fec7434783ad21974735085.jpg Скачать фильм Шпионы по соседству через торрент бесплантно в хорошем качестве Описание: Супружеская пара из пригорода оказывается втянутой в международный шпионский заговор, когда обнаруживает, что их, казалось бы, ... 10 10 2
Info! Золотая раздача, скачанное не засчитывается.
Торрент: Зарегистрирован [2017-03-11 06:44] · скачан: 47 раз
Статус: √ проверено
Размер: 24.24 GB
Как cкачать? Как скачать Шпионы по соседству через торрент | qTorrent

% Раздел Тема Автор DL S | L
Фильмы (WEB-DL 720p, 1080p) [ 4.26 GB ] Шпионы по соседству / Keeping Up with the Joneses [2016 WEBRip 1080p] [Open Matte] Russian Mafia Скачать
1 | 0
Фильмы 2016 [DVDrip, WEB-DLRip, HDrip] (DUB, MVO) [ 2.18 GB ] Шпионы по соседству / Keeping Up with the Joneses [2016 WEB-DLRip] [Open Matte / Локализованный видеоряд] killermax2013 Скачать
3 | 0
Фильмы (WEB-DL 720p, 1080p) [ 4.32 GB ] Шпионы по соседству / Keeping Up with the Joneses [2016 WEB-DL 1080p] [Open Matte / Локализованный видеоряд] killermax2013 Скачать
4 | 0
Ultra HD (UHD: 2K, 4K, 8K) — видео сверхвысокой чёткости [ 29.8 GB ] Шпионы по соседству / Keeping Up with the Joneses [2016 UHD BDRemux 2160p] DUB [] sheker187 Скачать
1 | 0
Ultra HD (UHD: 2K, 4K, 8K) — видео сверхвысокой чёткости [ 54.62 GB ] Шпионы по соседству / Keeping Up with the Joneses [2016 UHD WEBRip 2160p] - [] sheker187 Скачать
1 | 0
Фильмы 2016 [DVDrip, WEB-DLRip, HDrip] (DUB, MVO) [ 1.46 GB ] Шпионы по соседству / Keeping Up with the Joneses [2016 BDRip] - [] Twi7ter Скачать
5 | 0
Фильмы [HD 720p, 1080p] (Хороший звук DUB, MVO) [ 15.1 GB ] Шпионы по соседству / Keeping Up with the Joneses [2016 BDRip 1080p] - [] -Lexx- Скачать
1 | 0

28-11-2019 20:33  

Отключить всю рекламу на сайте

    Дорогой пользователь! Огромная просьба, поблагодарите релизера, оцените раздачу и оставьте свои комментарий, если Вы скачали Шпионы по соседству через торрент бесплатно! Внесите свою лепту в развитие PiratBit!
    Комментировать посты могут только пользователи прошедшие не сложную регистрацию
    Показать сообщения:    

    Шпионы по соседству через торрент
    Скачать бесплатно Шпионы по соседству
    Шпионы по соседству скачать торрент
    Шпионы по соседству смотреть онлайн
    Cкачать фильм Шпионы по соседству бесплатно
    Шпионы по соседству скачать торрент в хорошем качестве
    Шпионы по соседству смотреть онлайн бесплатно в хорошем качестве


    Вы не можете начинать темы
    Вы не можете отвечать на сообщения
    Вы не можете редактировать свои сообщения
    Вы не можете удалять свои сообщения
    Вы не можете голосовать в опросах
    Вы не можете прикреплять файлы к сообщениям
    Вы можете скачивать файлы