новый адрес
Ссылка на приватное зеркало всего за 1$. Внимание количество ограничено!!!

iTunes

1+1

iTunes

мы

iTunes

1

iTunes

Чернобыль

iTunes

Ральф против интернета

Лицензия

ПШазам

Лицензия

Оно 2

Лицензия

30
pack

Вам бонус

ВАЖНО

!!Акция!!

Alien_RageХит недели

RePack

Resident Evil 21

ИГРА 18+

pack

RePack

jed

!!Акция!!

Alien_Rage

RePack

fifa19

RePack

Assassins Creed: Odyssey

RePack

NEED FOR SPEED™ PAYBACK

3 сезон

9 сезон

Бесстыжие 9 сезон

Все сериалы

все сериалы на PB.wtf

RePack

FAR CRY 5
Ребята, катастрофически не хватает 1900р. для оплаты серверов за Октябрь (всвязи с блокировками трафик упал в 3 раза), 1-2р., выручайте.
  

Цель его жизни (Анатолий Рыбаков) [1957, драма, SATRip от AVP Studio] pb.wtf

Цель его жизни через торрент pb.wtf

Размер: 745 MB | Добавлен: 2 года 8 мес. назад | Торрент скачан:5 раз
Скачать  

11-03-2017 09:21 Цель его жизни Скачать торрент  

Цель его жизни
Страна: СССР
Производство: Мосфильм

Жанр: драма
Год выпуска: 1957
Продолжительность: 01:23:39

Перевод: Не требуется
Cубтитры: нет
Оригинальная аудиодорожка: русский

Режиссер: Анатолий Рыбаков

В ролях:
Всеволод Сафонов, Людмила Шагалова, Марк Бернес, Андрей Абрикосов, Владимир Емельянов, Софья Фадеева, Анатолий Чемодуров, Пётр Савин, Хорен Абрамян, Евгений Тетерин, Константин Светлов, Юрий Кротенко, Пров Садовский...
Об актёрах подробней

Описание:
Алексей Костров (Всеволод Сафонов), опытный военный летчик, Герой Советского Союза, мечтает испытывать новые реактивные машины. Однако его постоянные просьбы не приносят успеха. Кострову необходим опыт работы на дальних трассах. И он уезжает работать на один из степных аэродромов. В Москве Костров оставляет свою жену Нину (Людмила Шагалова), не зная, что она ждёт ребёнка. Однажды во время очередного полёта Костров самовольно изменяет маршрут самолёта, чтобы разыскать пропавшую геологическую партию. Лётчику удаётся спасти людей. Но начальник аэродрома, формалист Селиванов объявляет Кострову выговор. Внезапное известие о рождении у Нины мёртвого ребёнка приводит Алексея в Москву. Он снова отправляется на аэродром, где испытывают новые машины. Настойчивость Кострова подкупает опытного летчика-испытателя Ануфриева. С его помощью Костров вначале становится пилотом самолёта Як-12, перевозящего детали с заводов, а вскоре заменяет лётчика, погибшего во время испытательного полёта. Костров берётся за выполнение всё более сложных задач, помогая конструкторам совершенствовать реактивные самолёты. Нина встревожена за мужа, занимающегося трудной и опасной работой. Однажды самолёт Кострова отправляется в полёт без предварительной проверки. В этом виновен всё тот же Селиванов, перебравшийся в центральное управление. Он торопит лётчиков с окончанием испытаний, рассчитывая на большую премию. В воздухе самолёт загорается. Костров приказывает экипажу покинуть машину. С большим трудом Алексею удаётся сбить пламя и посадить самолёт.

Источник: DVB
Качество видео: SATRip
Формат видео: AVI

Видео: 640x480 (4:3), 25 fps, XviD ~ 1108 kbps avg, 0.144 bit/pixel
Аудио: 48 kHz, MP3 2.0, 128 kbps

Раздача от:
Общее
Полное имя : Cel.ego.zhizni.1957.SATRip-745_[New-team]_by_AVP_Studio.avi
Формат : AVI
Формат/Информация : Audio Video Interleave
Размер файла : 745 Мбайт
Продолжительность : 1 ч. 23 м.
Общий поток : 1246 Кбит/сек
Программа кодирования : VirtualDubMod 1.5.10.3 | www.virtualdub-fr.org || (build 2550/release)
Библиотека кодирования : VirtualDubMod build 2550/release

Видео
Идентификатор : 0
Формат : MPEG-4 Visual
Профиль формата : Advanced Simple@L5
Параметр BVOP формата : 1
Параметр QPel формата : Нет
Параметр GMC формата : Без точки перехода
Параметр матрицы формата : Выборочная
Идентификатор кодека : XVID
Идентификатор кодека/Подсказка : XviD
Продолжительность : 1 ч. 23 м.
Битрейт : 1108 Кбит/сек
Ширина : 640 пикселей
Высота : 480 пикселей
Соотношение сторон : 4:3
Частота кадров : 25,000 кадров/сек
Цветовое пространство : YUV
Субдискретизация насыщенности : 4:2:0
Битовая глубина : 8 бит
Тип развёртки : Прогрессивная
Метод сжатия : С потерями
Бит/(Пиксели*Кадры) : 0.144
Размер потока : 663 Мбайт (89%)
Библиотека кодирования : XviD 73

Аудио
Идентификатор : 1
Формат : MPEG Audio
Версия формата : Version 1
Профиль формата : Layer 3
Идентификатор кодека : 55
Идентификатор кодека/Подсказка : MP3
Продолжительность : 1 ч. 23 м.
Вид битрейта : Постоянный
Битрейт : 128 Кбит/сек
Каналы : 2 канала
Частота : 48,0 КГц
Метод сжатия : С потерями
Размер потока : 76,6 Мбайт (10%)
Выравнивание : Соединение по промежуткам
Продолжительность промежутка : 40 мс. (1,00 видеокадр)
Время предзагрузки промежутка : 504 мс.
Библиотека кодирования : LAME3.99r
Настройки программы : -m s -V 4 -q 2 -lowpass 17 -b 128
pb.wtf



Скачать Цель его жизни через торрент http://s019.radikal.ru/i644/1703/68/e79319bb974b.png Скачать фильм Цель его жизни через торрент бесплантно в хорошем качестве Описание:Алексей Костров (Всеволод Сафонов), опытный военный летчик, Герой Советского Союза, мечтает испытывать новые реактивные машины. ... 5 10 1
Info! Золотая раздача, скачанное не засчитывается.
Торрент: Зарегистрирован [2017-03-11 09:21] · скачан: 5 раз
Статус: √ проверено
Размер: 745 MB
Как cкачать? Как скачать Цель его жизни через торрент | qTorrent

% Раздел Тема Автор DL S | L
Кино СССР [ 1.09 GB ] Цель его жизни [1957 SATRip-AVC от AVP Studio] AVP Studio Скачать
1 | 0
Кино СССР [ 1.09 GB ] Цель его жизни [1957 SATRip от AVP Studio] AVP Studio Скачать
1 | 0
    Дорогой пользователь! Огромная просьба, поблагодарите релизера, оцените раздачу и оставьте свои комментарий, если Вы скачали Цель его жизни через торрент бесплатно! Внесите свою лепту в развитие PiratBit!
    Комментировать посты могут только пользователи прошедшие не сложную регистрацию
    Показать сообщения:    

    Цель его жизни через торрент
    Скачать бесплатно Цель его жизни
    Цель его жизни скачать торрент
    Цель его жизни смотреть онлайн
    Cкачать фильм Цель его жизни бесплатно
    Цель его жизни скачать торрент в хорошем качестве
    Цель его жизни смотреть онлайн бесплатно в хорошем качестве


    Вы не можете начинать темы
    Вы не можете отвечать на сообщения
    Вы не можете редактировать свои сообщения
    Вы не можете удалять свои сообщения
    Вы не можете голосовать в опросах
    Вы не можете прикреплять файлы к сообщениям
    Вы можете скачивать файлы