Ссылка на приватное зеркало нашего сайта всего за 1$. Внимание количество ограничено!!!

2 сезон

iTunes

1 сезон

1

2 сезон

2 сезон

iTunes

1 сезон

RePack

30

Ultimate

ВАЖНО

ИГРА 18+

pack

RePack

MK11
pack

Забери бонус

RePack

jed

!!Акция!!

Alien_Rage

RePack

fifa19

RePack

Assassins Creed: Odyssey

RePack

NEED FOR SPEED™ PAYBACK

4 сезон

9 сезон

Бесстыжие 9 сезон

Все сериалы

все сериалы на PB.wtf

RePack

FAR CRY 5
  

Тайны и ложь / Secrets and Lies / 1 сезон / 10 серий из 10 (Адам Аркин, Тимоти Басфилд, Кейт Дэнни) [2015, драма, детектив, триллер, WEBRip 1080p] [Dub] (Кириллица) pb.wtf

Тайны и ложь через торрент pb.wtf

Размер: 33.79 GB | Добавлен: 3 года 8 мес. назад | Торрент скачан:20 раз
Скачать  

11-03-2017 18:19 Тайны и ложь Скачать торрент  

Тайны и ложь / Secrets and Lies
Год выпуска: 2015
Страна: США
Жанр: драма, детектив, триллер
Продолжительность: ~ 00:43:00
Перевод: Профессиональный (дублированный) | Кириллица
Режиссёр: Адам Аркин, Тимоти Басфилд, Кейт Дэнни
В ролях: Райан Филипп, Джульетт Льюис, КаДи Стрикленд, Натали Мартинес, Индиана Эванс, Белль Шусе, Дэн Фоглер, Бенни Карамелло, Джордана Брюстер, Мекиа Кокс
Описание: После того, как Бен Кроуфорд нашел тело соседского мальчика в лесу, его начинают подозревать в убийстве. Детектив Андреа Корнелл пытается докопаться до истины. Все тайны и ложь городка, где произошел инцидент, всплывут на поверхность, а жизнь семьи Бена будет перевернута вверх дном…

by Ser_GV

Качество: WEBRip 1080p
Контейнер: MKV
Видео: 1920x1080, 23.976 fps, MPEG-4 AVC, ~10000 kbps avg, 0.193 bit/pixel
Аудио: 48 kHz, AC3, 3/2 (L,C,R,l,r) + LFE ch, ~448.00 kbps avg | Кириллица
Аудио: 48 kHz, E-AC3, 3/2 (L,C,R,l,r) + LFE ch, ~640.00 kbps avg
Субтитры: English
Реклама: Отсутствует
Общее
Уникальный идентификатор : 228870882152554324482686727922410515887 (0xAC2EEDB460A5B1FE9E8409CBC766EDAF)
Полное имя : E:\Movies\Secrets.and.Lies.US.S01.1080p.WEBRip.Rus.Eng.HDCLUB\Secrets.and.Lies.US.S01E01.1080p.WEBRip.Rus.Eng.HDCLUB.mkv
Формат : Matroska
Версия формата : Version 4 / Version 2
Размер файла : 3,20 Гбайт
Продолжительность : 42 м. 51 с.
Режим общего битрейта : Переменный
Общий поток : 10,7 Мбит/сек
Название фильма : Secrets and Lies (2015) 1x01 @ release by SerGV for HDCLUB
Дата кодирования : UTC 2017-03-02 08:23:58
Программа кодирования : mkvmerge v7.7.0 ('Six Voices') 64bit built on Feb 28 2015 23:39:33
Библиотека кодирования : libebml v1.3.1 + libmatroska v1.4.2
Обложка : Yes
Attachments : cover.jpg
Видео
Идентификатор : 1
Формат : AVC
Формат/Информация : Advanced Video Codec
Профиль формата : High@L4
Параметр CABAC формата : Да
Параметр ReFrames формата : 4 кадра
Идентификатор кодека : V_MPEG4/ISO/AVC
Продолжительность : 42 м. 51 с.
Вид битрейта : Переменный
Битрейт : 9609 Кбит/сек
Максимальный битрейт : 15,0 Мбит/сек
Ширина : 1920 пикселей
Высота : 1080 пикселей
Соотношение сторон : 16:9
Режим частоты кадров : Постоянный
Частота кадров : 23,976 (24000/1001) кадра/сек
Цветовое пространство : YUV
Субдискретизация насыщенности : 4:2:0
Битовая глубина : 8 бит
Тип развёртки : Прогрессивная
Бит/(Пиксели*Кадры) : 0.193
Размер потока : 2,88 Гбайт (90%)
Заголовок : 1x01: The Trail @ release by SerGV for HDCLUB
Библиотека кодирования : x264 core 148 r2623 d5b2374
Настройки программы : cabac=1 / ref=4 / deblock=1:-1:-1 / analyse=0x3:0x133 / me=umh / subme=9 / psy=1 / psy_rd=1.00:0.15 / mixed_ref=1 / me_range=24 / chroma_me=1 / trellis=2 / 8x8dct=1 / cqm=0 / deadzone=21,11 / fast_pskip=1 / chroma_qp_offset=-3 / threads=34 / lookahead_threads=5 / sliced_threads=0 / nr=150 / decimate=1 / interlaced=0 / bluray_compat=0 / constrained_intra=0 / bframes=8 / b_pyramid=2 / b_adapt=2 / b_bias=0 / direct=3 / weightb=1 / open_gop=0 / weightp=2 / keyint=120 / keyint_min=61 / scenecut=0 / intra_refresh=0 / rc_lookahead=120 / rc=crf / mbtree=1 / crf=18.0 / qcomp=0.60 / qpmin=0 / qpmax=69 / qpstep=4 / vbv_maxrate=15000 / vbv_bufsize=31250 / crf_max=0.0 / nal_hrd=vbr / filler=0 / ip_ratio=1.40 / aq=3:1.00
Язык : English
Default : Да
Forced : Нет
Цветовой диапазон : Limited
Основные цвета : BT.709
Характеристики трансфера : BT.709
Коэффициенты матрицы : BT.709
Аудио #1
Идентификатор : 2
Формат : AC-3
Формат/Информация : Audio Coding 3
Параметр Endianness формата : Big
Идентификатор кодека : A_AC3
Продолжительность : 42 м. 51 с.
Вид битрейта : Постоянный
Битрейт : 448 Кбит/сек
Каналы : 6 каналов
Расположение каналов : Front: L C R, Side: L R, LFE
Частота : 48,0 КГц
Частота кадров : 31,250 кадров/сек (1536 spf)
Битовая глубина : 16 бит
Метод сжатия : С потерями
Размер потока : 137 Мбайт (4%)
Заголовок : DD 5.1 @ 448 kbps - Дубляж, Кириллица
Язык : Russian
ServiceKind/String : Complete Main
Default : Да
Forced : Нет
Аудио #2
Идентификатор : 3
Формат : E-AC-3
Формат/Информация : Enhanced Audio Coding 3
Параметр Endianness формата : Big
Идентификатор кодека : A_EAC3
Продолжительность : 42 м. 51 с.
Вид битрейта : Постоянный
Битрейт : 640 Кбит/сек
Каналы : 6 каналов
Расположение каналов : Front: L C R, Side: L R, LFE
Частота : 48,0 КГц
Частота кадров : 187,500 кадров/сек (256 spf)
Метод сжатия : С потерями
Размер потока : 196 Мбайт (6%)
Заголовок : DD 5.1 @ 640 kbps - Original
Язык : English
ServiceKind/String : Complete Main
Default : Нет
Forced : Нет
Текст
Идентификатор : 4
Формат : UTF-8
Идентификатор кодека : S_TEXT/UTF8
Идентификатор кодека/Информация : UTF-8 Plain Text
Продолжительность : 41 м. 56 с.
Битрейт : 65 бит/сек
ElementCount : 752
Размер потока : 20,1 Кбайт (0%)
Язык : English
Default : Нет
Forced : Нет

pb.wtf



Скачать Тайны и ложь через торрент http://i89.fastpic.ru/big/2017/0309/34/ffeb50fe27e3663687965768ea8d9034.jpg Скачать фильм Тайны и ложь через торрент бесплантно в хорошем качестве Описание: После того, как Бен Кроуфорд нашел тело соседского мальчика в лесу, его начинают подозревать в убийстве. Детектив Андреа Корнелл ... 10 10 3
Info! Золотая раздача, скачанное не засчитывается.
Торрент: Зарегистрирован [2017-03-11 18:19] · скачан: 20 раз
Статус: √ проверено
Размер: 33.79 GB
Как cкачать? Как скачать Тайны и ложь через торрент | qTorrent

% Раздел Тема Автор DL S | L
Зарубежные сериалы [ 4.95 GB ] Тайны и ложь / Secrets and Lies / Сезон 2 / Серия 1-10 из 10 [2016 HDTVRip] DVO [RG.paravozik] bober100 Скачать
1 | 0
Зарубежные сериалы [ 7.23 GB ] Тайны и ложь / Secrets and Lies / 1 сезон / 10 серий из 10 [2015 WEB-DLRip] DUB [Кириллица] bober100 Скачать
1 | 0

28-11-2019 20:33  

Отключить всю рекламу на сайте

    Дорогой пользователь! Огромная просьба, поблагодарите релизера, оцените раздачу и оставьте свои комментарий, если Вы скачали Тайны и ложь через торрент бесплатно! Внесите свою лепту в развитие PiratBit!
    Комментировать посты могут только пользователи прошедшие не сложную регистрацию
    Показать сообщения:    

    Тайны и ложь через торрент
    Скачать бесплатно Тайны и ложь
    Тайны и ложь скачать торрент
    Тайны и ложь смотреть онлайн
    Cкачать фильм Тайны и ложь бесплатно
    Тайны и ложь скачать торрент в хорошем качестве
    Тайны и ложь смотреть онлайн бесплатно в хорошем качестве


    Вы не можете начинать темы
    Вы не можете отвечать на сообщения
    Вы не можете редактировать свои сообщения
    Вы не можете удалять свои сообщения
    Вы не можете голосовать в опросах
    Вы не можете прикреплять файлы к сообщениям
    Вы можете скачивать файлы