Ссылка на приватное зеркало нашего сайта всего за 1$. Внимание количество ограничено!!!

2 сезон

iTunes

1 сезон

1

iTunes

iTunes

iTunes

1 сезон

RePack

30

ИГРА 18+

pack

ВАЖНО

!!Акция!!

Alien_RageХит недели

RePack

MK11
pack

Забери бонус

RePack

jed

!!Акция!!

Alien_Rage

RePack

fifa19

RePack

Assassins Creed: Odyssey

RePack

NEED FOR SPEED™ PAYBACK

4 сезон

9 сезон

Бесстыжие 9 сезон

Все сериалы

все сериалы на PB.wtf

RePack

FAR CRY 5
  

Остров доктора Моро / The Island of Dr. Moreau (Дон Тейлор) [1977, ужасы, фантастика, триллер, приключения BDRip 720p, MVO ] от ExKinoRay pb.wtf

Остров доктора Моро через торрент pb.wtf

Размер: 6.43 GB | Добавлен: 3 года 7 мес. назад | Торрент скачан:34 раза
Скачать  

11-03-2017 20:37 Остров доктора Моро Скачать торрент  

«The Doctor Is In-SANE!» Информация о фильме
Название: Остров доктора Моро
Оригинальное название: The Island of Dr. Moreau
Год выхода: 1977
Выпущено: США, American International Pictures (AIP), Cinema 77, Major Productions
Жанр: ужасы, фантастика, фэнтези, триллер, мелодрама, приключения
Продолжительность: 01:38:50
Перевод: профессиональный (многоголосый, закадровый)
Субтитры: Английские
Режиссер: Дон Тейлор
В ролях: Берт Ланкастер, Майкл Йорк, Найджел Девенпорт, Барбара Каррера, Ричард Бейсхарт, Ник Крэвет, Великий Джон Л., Боб Озман, Фумио Демура, Гари Бэксли
Описание: На заброшенном острове безумный ученый доктор Моро с помощью специальной сыворотки превращает животных в подобие людей. Существует также и сыворотка, способная человека превратить в животное. По крайней мере, так полагает доктор Моро, и начинает испытывать ее действие на незваном госте: потерпевшем кораблекрушение моряке. И только бунт человеко-зверей поможет бедняге покинуть кошмарный остров.


rating
Файл
Качество: BDRip (720p)
Видео: MPEG-4 AVC, 1280x692 (1.85:1), 23,976 fps, High@L4.1 ~8350 kbps avg, 0.393 bit/pixel
Аудио 1: Russian; AC3; 48.0 KHz; 2ch; 192 Kbps MVO
Аудио 2: Russian; AC3; 48.0 KHz; 2ch; 192 Kbps MVO НТВ
Аудио 3: Russian; AC3; 48.0 KHz; 2ch; 384 Kbps MVO CB-Дубль
Аудио 4: English; AC3; 48.0 KHz; 2ch; 192 Kbps
General
Unique ID : 205173637283197173387496686216248052714 (0x9A5B0153C15FC138ABB1916D87984BEA)
Complete name : D:\The.Island.of.Dr.Moreau.1977.3xRus.BDRip.720p.ExKinoRay.mkv
Format : Matroska
Format version : Version 2
File size : 6.43 GiB
Duration : 1 h 38 min
Overall bit rate : 9 309 kb/s
Movie name : The Island of Dr Moreau 1977 from ExKinoRay
Encoded date : UTC 2017-03-10 17:55:22
Writing application : mkvmerge v5.8.0 ('No Sleep / Pillow') built on Sep 2 2012 15:37:04
Writing library : libebml v1.2.3 + libmatroska v1.3.0

Video
ID : 1
Format : AVC
Format/Info : Advanced Video Codec
Format profile : High@L4.1
Format settings, CABAC : Yes
Format settings, ReFrames : 9 frames
Codec ID : V_MPEG4/ISO/AVC
Duration : 1 h 38 min
Bit rate : 8 350 kb/s
Width : 1 280 pixels
Height : 692 pixels
Display aspect ratio : 1.85:1
Frame rate mode : Constant
Frame rate : 23.976 (24000/1001) FPS
Color space : YUV
Chroma subsampling : 4:2:0
Bit depth : 8 bits
Scan type : Progressive
Bits/(Pixel*Frame) : 0.393
Stream size : 5.64 GiB (88%)
Title : Enigma
Writing library : x264 core 144 r2525 40bb568
Encoding settings : cabac=1 / ref=9 / deblock=1:-3:-3 / analyse=0x3:0x113 / me=umh / subme=10 / psy=1 / psy_rd=0.95:0.00 / mixed_ref=1 / me_range=32 / chroma_me=1 / trellis=2 / 8x8dct=1 / cqm=0 / deadzone=21,11 / fast_pskip=1 / chroma_qp_offset=-2 / threads=12 / lookahead_threads=3 / sliced_threads=0 / nr=0 / decimate=1 / interlaced=0 / bluray_compat=0 / constrained_intra=0 / bframes=12 / b_pyramid=2 / b_adapt=2 / b_bias=0 / direct=3 / weightb=1 / open_gop=0 / weightp=2 / keyint=240 / keyint_min=23 / scenecut=40 / intra_refresh=0 / rc_lookahead=40 / rc=2pass / mbtree=0 / bitrate=8350 / ratetol=1.0 / qcomp=0.63 / qpmin=0 / qpmax=51 / qpstep=4 / cplxblur=20.0 / qblur=0.5 / vbv_maxrate=50000 / vbv_bufsize=62500 / nal_hrd=none / filler=0 / ip_ratio=1.40 / pb_ratio=1.30 / aq=1:0.80
Language : English
Default : Yes
Forced : No
Color range : Limited
Color primaries : BT.709
Transfer characteristics : BT.709
Matrix coefficients : BT.709

Audio #1
ID : 2
Format : AC-3
Format/Info : Audio Coding 3
Mode extension : CM (complete main)
Format settings, Endianness : Big
Codec ID : A_AC3
Duration : 1 h 38 min
Bit rate mode : Constant
Bit rate : 384 kb/s
Channel(s) : 2 channels
Channel positions : Front: L R
Sampling rate : 48.0 kHz
Frame rate : 31.250 FPS (1536 spf)
Bit depth : 16 bits
Compression mode : Lossy
Stream size : 272 MiB (4%)
Title : MVO
Language : Russian
Default : Yes
Forced : No

Audio #2
ID : 3
Format : AC-3
Format/Info : Audio Coding 3
Mode extension : CM (complete main)
Format settings, Endianness : Big
Codec ID : A_AC3
Duration : 1 h 38 min
Bit rate mode : Constant
Bit rate : 192 kb/s
Channel(s) : 2 channels
Channel positions : Front: L R
Sampling rate : 48.0 kHz
Frame rate : 31.250 FPS (1536 spf)
Bit depth : 16 bits
Compression mode : Lossy
Stream size : 136 MiB (2%)
Title : MVO НТВ
Language : Russian
Default : No
Forced : No

Audio #3
ID : 4
Format : AC-3
Format/Info : Audio Coding 3
Mode extension : CM (complete main)
Format settings, Endianness : Big
Codec ID : A_AC3
Duration : 1 h 38 min
Bit rate mode : Constant
Bit rate : 192 kb/s
Channel(s) : 2 channels
Channel positions : Front: L R
Sampling rate : 48.0 kHz
Frame rate : 31.250 FPS (1536 spf)
Bit depth : 16 bits
Compression mode : Lossy
Stream size : 136 MiB (2%)
Title : MVO CB-Дубль
Language : Russian
Default : No
Forced : No

Audio #4
ID : 5
Format : AC-3
Format/Info : Audio Coding 3
Mode extension : CM (complete main)
Format settings, Endianness : Big
Codec ID : A_AC3
Duration : 1 h 38 min
Bit rate mode : Constant
Bit rate : 192 kb/s
Channel(s) : 2 channels
Channel positions : Front: L R
Sampling rate : 48.0 kHz
Frame rate : 31.250 FPS (1536 spf)
Bit depth : 16 bits
Compression mode : Lossy
Stream size : 136 MiB (2%)
Language : English
Default : No
Forced : No

Text
ID : 6
Format : UTF-8
Codec ID : S_TEXT/UTF8
Codec ID/Info : UTF-8 Plain Text
Language : English
Default : No
Forced : No

Menu
00:00:00.000 : en:Chapter 1
00:07:20.982 : en:Chapter 2
00:19:49.605 : en:Chapter 3
00:36:14.255 : en:Chapter 4
00:48:55.931 : en:Chapter 5
01:02:44.469 : en:Chapter 6
01:16:16.154 : en:Chapter 7
01:26:31.019 : en:Chapter 8
01:36:59.000 : en:Credits
Релиз от:

Автор релиза:

pb.wtf



Скачать Остров доктора Моро через торрент http://s45.radikal.ru/i109/1703/71/65a5d7cc1fb6.jpg Скачать фильм Остров доктора Моро через торрент бесплантно в хорошем качестве Описание: На заброшенном острове безумный ученый доктор Моро с помощью специальной сыворотки превращает животных в подобие людей. ... 10 10 6
Info! Золотая раздача, скачанное не засчитывается.
Торрент: Зарегистрирован [2017-03-11 20:37] · скачан: 34 раз
Статус: √ проверено
Размер: 6.43 GB
Как cкачать? Как скачать Остров доктора Моро через торрент | qTorrent

28-11-2019 20:33  

Отключить всю рекламу на сайте

12-03-2017 08:54 Остров доктора Моро Скачать торрент  

Смотрел его в 90-е на видеокассете, хороший фильм.pb.wtf



12-03-2017 21:40 Остров доктора Моро Скачать торрент  

Читал где то год назад - фантазия больного. Просто вынос мозгов на тележке.pb.wtf



    Дорогой пользователь! Огромная просьба, поблагодарите релизера, оцените раздачу и оставьте свои комментарий, если Вы скачали Остров доктора Моро через торрент бесплатно! Внесите свою лепту в развитие PiratBit!
    Комментировать посты могут только пользователи прошедшие не сложную регистрацию
    Показать сообщения:    

    Остров доктора Моро через торрент
    Скачать бесплатно Остров доктора Моро
    Остров доктора Моро скачать торрент
    Остров доктора Моро смотреть онлайн
    Cкачать фильм Остров доктора Моро бесплатно
    Остров доктора Моро скачать торрент в хорошем качестве
    Остров доктора Моро смотреть онлайн бесплатно в хорошем качестве


    Вы не можете начинать темы
    Вы не можете отвечать на сообщения
    Вы не можете редактировать свои сообщения
    Вы не можете удалять свои сообщения
    Вы не можете голосовать в опросах
    Вы не можете прикреплять файлы к сообщениям
    Вы можете скачивать файлы