Ссылка на приватное зеркало нашего сайта всего за 1$. Внимание количество ограничено!!!

2 сезон

iTunes

1 сезон

1

iTunes

iTunes

iTunes

1 сезон

RePack

30

ИГРА 18+

pack

ВАЖНО

!!Акция!!

Alien_RageХит недели

RePack

MK11
pack

Забери бонус

RePack

jed

!!Акция!!

Alien_Rage

RePack

fifa19

RePack

Assassins Creed: Odyssey

RePack

NEED FOR SPEED™ PAYBACK

4 сезон

9 сезон

Бесстыжие 9 сезон

Все сериалы

все сериалы на PB.wtf

RePack

FAR CRY 5
  

Дело судьи Карелиной / Серии: 1-4 из 4 (Анатолий Артамонов) [2016 г., Детектив, мелодрама, WEB-DLRip] pb.wtf

Дело судьи Карелиной через торрент pb.wtf

Размер: 2.34 GB | Добавлен: 3 года 7 мес. назад | Торрент скачан:68 раз
Скачать  

11-03-2017 23:08 Дело судьи Карелиной Скачать торрент  

Дело судьи Карелиной / Серии: 1-4 из 4
Год выпуска: 2016
Страна: Россия, Mauris Film
Жанр: Детектив, мелодрама
Продолжительность: 4 х ~ 00:49:00
Субтитры: нет

Режиссер: Анатолий Артамонов

В ролях: Светлана Антонова, Вячеслав Дробинков, Данила Дунаев, Максим Битюков, Екатерина Молоховская, Эрик Яралов, Александр Армер, Татьяна Ермилова, Анастасия Савосина

Описание: Ирина - судья. На работе она безупречна: всегда знает, что говорит закон, и действует соответственно. Дома тоже никаких эксцессов: долгие годы счастливого брака не оставляют шансов ни сомнениям, ни ошибкам. Но в один прекрасный день выясняется, что муж изменяет Ирине. И все, что казалось незыблемым, летит кувырком. Уже не такими однозначными кажутся дела, которые ведет судья. Ирина с ужасом обнаруживает, что закон может говорить одно, а сердце - другое.

Качество: WEB-DLRip
Формат: AVI
Видео кодек: XviD
Аудио кодек: AC3
Видео: XviD, ~ 1550 Kbps, 720х400,25.000 fps
Аудио: 48 kHz, AC3, 2 ch, ~192 Kbps



General
Complete name : H:\релизы.торрентфайл\Delo.sudji.karelinoj.2016.WEB-DLRip.Files-x\04.Delo.sudji.karelinoj.2016.WEB-DLRip.Files-x.avi
Format : AVI
Format/Info : Audio Video Interleave
File size : 598 MiB
Duration : 47mn 46s
Overall bit rate : 1 751 Kbps
Writing application : VirtualDubMod 1.5.10.3 | www.virtualdub-fr.org || (build 2550/release)
Writing library : VirtualDubMod build 2550/release

Video
ID : 0
Format : MPEG-4 Visual
Format profile : Advanced Simple@L5
Format settings, BVOP : 1
Format settings, QPel : No
Format settings, GMC : No warppoints
Format settings, Matrix : Custom
Codec ID : XVID
Codec ID/Hint : XviD
Duration : 47mn 46s
Bit rate : 1 550 Kbps
Width : 720 pixels
Height : 400 pixels
Display aspect ratio : 16:9
Frame rate : 25.000 fps
Color space : YUV
Chroma subsampling : 4:2:0
Bit depth : 8 bits
Scan type : Progressive
Compression mode : Lossy
Bits/(Pixel*Frame) : 0.215
Stream size : 530 MiB (88%)
Writing library : XviD 73

Audio
ID : 1
Format : AC-3
Format/Info : Audio Coding 3
Mode extension : CM (complete main)
Format settings, Endianness : Big
Codec ID : 2000
Duration : 47mn 46s
Bit rate mode : Constant
Bit rate : 192 Kbps
Channel(s) : 2 channels
Channel positions : Front: L R
Sampling rate : 48.0 KHz
Bit depth : 16 bits
Compression mode : Lossy
Stream size : 65.6 MiB (11%)
Alignment : Split accross interleaves
Interleave, duration : 40 ms (1.00 video frame)
Interleave, preload duration : 500 ms

pb.wtf



Скачать Дело судьи Карелиной через торрент http://i90.fastpic.ru/big/2017/0311/25/70fc14a36d04258ab9b254f97f420025.png Скачать фильм Дело судьи Карелиной через торрент бесплантно в хорошем качестве Описание: Ирина - судья. На работе она безупречна: всегда знает, что говорит закон, и действует соответственно. Дома тоже никаких ... 10 10 4
Торрент: Зарегистрирован [2017-03-11 23:08] · скачан: 68 раз
Статус: √ проверено
Размер: 2.34 GB
Как cкачать? Как скачать Дело судьи Карелиной через торрент | qTorrent

28-11-2019 20:33  

Отключить всю рекламу на сайте

    Дорогой пользователь! Огромная просьба, поблагодарите релизера, оцените раздачу и оставьте свои комментарий, если Вы скачали Дело судьи Карелиной через торрент бесплатно! Внесите свою лепту в развитие PiratBit!
    Комментировать посты могут только пользователи прошедшие не сложную регистрацию
    Показать сообщения:    

    Дело судьи Карелиной через торрент
    Скачать бесплатно Дело судьи Карелиной
    Дело судьи Карелиной скачать торрент
    Дело судьи Карелиной смотреть онлайн
    Cкачать фильм Дело судьи Карелиной бесплатно
    Дело судьи Карелиной скачать торрент в хорошем качестве
    Дело судьи Карелиной смотреть онлайн бесплатно в хорошем качестве


    Вы не можете начинать темы
    Вы не можете отвечать на сообщения
    Вы не можете редактировать свои сообщения
    Вы не можете удалять свои сообщения
    Вы не можете голосовать в опросах
    Вы не можете прикреплять файлы к сообщениям
    Вы можете скачивать файлы