Ссылка на приватное зеркало всего за 1$. Внимание количество ограничено!!!

iTunes

iTunes

iTunes

1

iTunes

iTunes

iTunes

iTunes

iTunes

30
pack

$ от Little Big

ВАЖНО

!!Акция!!

Alien_RageХит недели

RePack

Resident Evil 21

ИГРА 18+

pack

RePack

jed

!!Акция!!

Alien_Rage

RePack

fifa19

RePack

Assassins Creed: Odyssey

RePack

NEED FOR SPEED™ PAYBACK

4 сезон

9 сезон

Бесстыжие 9 сезон

Все сериалы

все сериалы на PB.wtf

RePack

FAR CRY 5
  

Сеть / The Net (Ирвин Уинклер /Irwin Winkler) [1995, США, Боевик, триллер, криминал, драма, HDTVRip 720p], DUB (R5) + MVO + original + sub (Rus) pb.wtf

Сеть через торрент pb.wtf

Размер: 4.81 GB | Добавлен: 9 лет 9 мес. назад | Торрент скачан:26 раз
Скачать  

27-09-2010 13:35 Сеть Скачать торрент  

Сеть / The Net
«Escape is impossible when you're caught in the net.»

Год выпуска: 1995
Страна: США, «Columbia»
Жанр: Боевик / триллер / криминал / драма
Продолжительность: 01:32:13
Русские субтитры: Есть
Перевод:
Дублированный
Профессиональный (многоголосый закадровый)

Режиссер: Ирвин Уинклер
Сценарий: Джон Д. Бранкато, Майкл Феррис
Продюсер: Роб Кауэн, Ирвин Уинклер
Бюджет: $22 000 000 | Сборы в мире: $110 627 965
IMDB: 5.6 (24,397) | КиноПоиск: 7.0 (2 043)
КиноПоиск.Ru | IMDb.com

В ролях: Сандра Буллок, Джереми Нортэм, Деннис Миллер, Дайэн Бэйкер, Уэнди Гэзелл, Кен Ховард, Рэй МакКиннон, Дэниэл Шорр, Л. Скотт Колдуэлл, Роберт Госсетт.

Описание:
Программистка из Лос-Анджелеса Энджела Беннетт случайно узнает об операциях «преторианцев» — компьютерных преступников, организовывающих биржевые кризисы, катастрофы самолетов и убийства путем проникновения в соответствующие сети. Чужие секреты опасны для жизни, и на Энджелу начинается охота. Когда наемному убийце не удается «обезвредить» Энджелу, он с помощью компьютера присваивает ей имя преступницы и наркоманки. Но не только вся ее биография, но и жизнь может быть стерта, если ей не удастся разорвать сеть, которая все туже сплетается вокруг. Теперь за девушкой охотятся не только тайные враги, но и полиция…

Качество: HDTVRip | | Формат: MKV |
Видео кодек: H.264 | Аудио кодек: AC3
Видео: MPEG-4 Video (H264); 1280x720; 25.000 fps; 5259 kbps
Аудио:
Russian:(AC3; 48000 Hz; 6 ch; 384 kbps)
Russian (AC3; 48000 Hz; 2ch; 192.00 kbps)
English (AC3; 48000 Hz; 6ch; 448.00 kbps)

Cемпл
[URL=http:// СПАМ
[URL=http:// СПАМ [URL=http:// СПАМ [URL=http:// СПАМ [URL=http:// СПАМ

General
Complete name : The.Net.1995.720p.HDTV.x264.AC3.5.1-3r1c\The.Net.1995.HDTVRip.720p.x264.mkv
Format : Matroska
File size : 4.81 GiB
Duration : 1h 49mn
Overall bit rate : 6 285 Kbps
Movie name : Сеть / The Net (1995) HDTVRip 720p
Encoded date : UTC 2010-09-23 05:14:49
Writing application : mkvmerge v4.0.0 ('The Stars were mine') сборка от Jun 5 2010 17:44:09
Writing library : libebml v1.0.0 libmatroska v1.0.0

Video
ID : 1
Format : AVC
Format/Info : Advanced Video Codec
Format profile : High@L4.1
Format settings, CABAC : Yes
Format settings, ReFrames : 9 frames
Codec ID : V_MPEG4/ISO/AVC
Duration : 1h 49mn
Bit rate : 5 259 Kbps
Width : 1 280 pixels
Height : 720 pixels
Display aspect ratio : 16:9
Frame rate : 25.000 fps
Color space : YUV
Chroma subsampling : 4:2:0
Bit depth : 8 bits
Scan type : Progressive
Bits/(Pixel*Frame) : 0.228
Stream size : 3.93 GiB (82%)
Title : AVC x264;1280x720; 25.000 fps; 5259 kbps
Writing library : x264 core 67 r1173M f6d3166
Encoding settings : cabac=1 / ref=9 / deblock=1:-1:-1 / analyse=0x3:0x113 / me=umh / subme=7 / psy_rd=1.0:0.0 / mixed_ref=1 / me_range=16 / chroma_me=1 / trellis=2 / 8x8dct=1 / cqm=0 / deadzone=21,11 / chroma_qp_offset=-2 / threads=3 / nr=0 / decimate=1 / mbaff=0 / bframes=4 / b_pyramid=1 / b_adapt=1 / b_bias=0 / direct=3 / wpredb=1 / keyint=250 / keyint_min=25 / scenecut=40 / rc=2pass / bitrate=5259 / ratetol=1.0 / qcomp=0.60 / qpmin=10 / qpmax=51 / qpstep=4 / cplxblur=20.0 / qblur=0.5 / vbv_maxrate=16500 / vbv_bufsize=16500 / ip_ratio=1.40 / pb_ratio=1.30 / aq=1:1.00
Language : English

Audio #1
ID : 2
Format : AC-3
Format/Info : Audio Coding 3
Mode extension : CM (complete main)
Codec ID : A_AC3
Duration : 1h 49mn
Bit rate mode : Constant
Bit rate : 384 Kbps
Channel(s) : 6 channels
Channel positions : Front: L C R, Side: L R, LFE
Sampling rate : 48.0 KHz
Bit depth : 16 bits
Stream size : 301 MiB (6%)
Title : Dub - AC3; 48000 Hz; 6ch; 384.00 kbps
Language : Russian

Audio #2
ID : 3
Format : AC-3
Format/Info : Audio Coding 3
Mode extension : CM (complete main)
Codec ID : A_AC3
Duration : 1h 49mn
Bit rate mode : Constant
Bit rate : 192 Kbps
Channel(s) : 2 channels
Channel positions : Front: L R
Sampling rate : 48.0 KHz
Bit depth : 16 bits
Stream size : 151 MiB (3%)
Title : MVO - AC3; 48000 Hz; 2ch; 192.00 kbps
Language : Russian

Audio #3
ID : 4
Format : AC-3
Format/Info : Audio Coding 3
Mode extension : CM (complete main)
Codec ID : A_AC3
Duration : 1h 49mn
Bit rate mode : Constant
Bit rate : 448 Kbps
Channel(s) : 6 channels
Channel positions : Front: L C R, Side: L R, LFE
Sampling rate : 48.0 KHz
Bit depth : 16 bits
Stream size : 351 MiB (7%)
Title : EN_Original - AC3; 48000 Hz; 6ch; 448.00 kbps
Language : English

Text
ID : 5
Format : UTF-8
Codec ID : S_TEXT/UTF8
Codec ID/Info : UTF-8 Plain Text
Title : RU_Subtitles
Language : Russian
pb.wtf



Скачать Сеть через торрент http://s03.radikal.ru/i176/1009/ae/47b8d323a114.jpg Скачать фильм Сеть через торрент бесплантно в хорошем качестве Описание:Программистка из Лос-Анджелеса Энджела Беннетт случайно узнает об операциях «преторианцев» — компьютерных преступников, ... 10 10 1
Info! Золотая раздача, скачанное не засчитывается.
Торрент: Зарегистрирован [2010-09-27 13:35] · скачан: 26 раз
Статус: √ проверено
Размер: 4.81 GB
Как cкачать? Как скачать Сеть через торрент | qTorrent

% Раздел Тема Автор DL S | L
Фильмы [HD 720p, 1080p] (Хороший звук DUB, MVO) [ 2.43 GB ] Социальная сеть / The Social Network [2010 BDRip-HEVC 1080p ] DUB [] bober100 Скачать
1 | 0
Фильмы (Blu-ray, BD-Remux, HDDVD) [ 34.59 GB ] Социальная сеть / The Social Network [2010 BD Remux 1080p] DUB [ BD EUR] +AVO [Матвеев] bober100 Скачать
1 | 0
# Фильмы [HD 720p, 1080p] (Хороший звук DUB, MVO) [ 4.51 GB ] Социальная сеть / The Social Network [2010 биография BDRip 720p by msltel] DUB 4 x AVO msltel Скачать
1 | 0
Фильмы [HD 720p, 1080p] (Хороший звук DUB, MVO) [ 8.8 GB ] Социальная сеть / The Social Network [2010 биография BDRip 1080p от NNNB] DUB + 4xAVO + Original + Sub _denis_100 Скачать
1 | 0
Фильмы (Blu-ray, BD-Remux, HDDVD) [ 32.88 GB ] Сеть / The Net [1995 BDRemux ] DUB Ворон Скачать
1 | 0
Фильмы до 2000 г. [ 2.18 GB ] Сеть / The Net [1995 HDRip] killermax2013 Скачать
1 | 0
Фильмы 2010 [ 2.03 GB ] Социальная сеть / The Social Network / 2010 / BDRip maygli Скачать
1 | 0

28-11-2019 20:33  

Отключить всю рекламу на сайте

27-09-2010 14:50 Сеть Скачать торрент  

отличный фильм, посмотрите не пожалеете...pb.wtf



28-09-2010 13:28 Сеть Скачать торрент  

токо нахрена заливать фильмы 1995 года??????????????pb.wtf



28-09-2010 14:56 Сеть Скачать торрент  

DINO-UFO писал(а):

токо нахрена заливать фильмы 1995 года??????????????

не вижу в этом ничего плохого....
если же вам не нравится старые фильмы, не лезьте со своими коментариями...
кому надо, скачали.... и поблпгодарили...pb.wtf



    Дорогой пользователь! Огромная просьба, поблагодарите релизера, оцените раздачу и оставьте свои комментарий, если Вы скачали Сеть через торрент бесплатно! Внесите свою лепту в развитие PiratBit!
    Комментировать посты могут только пользователи прошедшие не сложную регистрацию
    Показать сообщения:    

    Сеть через торрент
    Скачать бесплатно Сеть
    Сеть скачать торрент
    Сеть смотреть онлайн
    Cкачать фильм Сеть бесплатно
    Сеть скачать торрент в хорошем качестве
    Сеть смотреть онлайн бесплатно в хорошем качестве


    Вы не можете начинать темы
    Вы не можете отвечать на сообщения
    Вы не можете редактировать свои сообщения
    Вы не можете удалять свои сообщения
    Вы не можете голосовать в опросах
    Вы не можете прикреплять файлы к сообщениям
    Вы можете скачивать файлы