новый адрес
Мега распродажа FORZA HORIZON 4 ULTIMATE+ВСЕ DLC+ОНЛАЙН всего за 499р. 349 руб. (супер цена). Внимание количество ограничено!!!

iTunes

1+1

iTunes

мы

iTunes

1

iTunes

Чернобыль

iTunes

Ральф против интернета

Лицензия

ПШазам

Лицензия

Игра престолов

Лицензия

30
pack

ВАЖНО

!!Акция!!

Alien_RageХит недели

RePack

Resident Evil 21

ИГРА 18+

pack

RePack

Metro:Exodus

!!Акция!!

Alien_Rage

RePack

fifa19

RePack

Assassins Creed: Odyssey

RePack

NEED FOR SPEED™ PAYBACK

3 сезон

9 сезон

Бесстыжие 9 сезон

Все сериалы

все сериалы на PB.wtf

RePack

FAR CRY 5
Ребята, катастрофически не хватает 1900р. для оплаты серверов за Октябрь (всвязи с блокировками трафик упал в 3 раза), 1-2р., выручайте.
  

Дорогой бессмертия (Андрей Чигинский, Георгий Товстоногов) [1957, СССР, драма, военный, SATRip от AVP Studio] pb.wtf

Дорогой бессмертия через торрент pb.wtf

Размер: 1.09 GB | Добавлен: 2 года 8 мес. назад | Торрент скачан:4 раза
Скачать  

12-03-2017 09:34 Дорогой бессмертия Скачать торрент  

Дорогой бессмертия
Страна: СССР
Производство: Леннаучфильм

Жанр: драма, военный
Год выпуска: 1957
Продолжительность: 01:25:24

Перевод: Не требуется
Cубтитры: нет
Оригинальная аудиодорожка: русский

Режиссер: Андрей Чигинский, Георгий Товстоногов

В ролях:
Иннокентий Смоктуновский, Евгения Козырева, Михаил Розанов (III), Роман Рубинштейн, Григорий Гай, Николай Сычёв, Игорь Щепетнов, Кирилл Лавров, Галина Свитич...
Об актёрах подробней

Описание:
Телефильм по книге Ю. Фучика "Слово перед казнью".
В основу фильма положен спектакль Ленинградского театра им. Ленинского комсомола по пьесе В.Брагина и Г.Товстоногова.
Чехословакия оккупирована фашистами. Измученного, избитого Юлиуса Фучика (Иннокентий Смоктуновсикй) бросают в камеру политзаключённых. В камере ещё двое - учитель и шахтёр. Сквозь бред вспоминает Фучик встречу с одним из руководителей подполья, последнюю совместную поездку с женой и арест на конспиративной квартире. В камеру приходит комиссар гестапо Бем. Он делает ещё одну попытку узнать имя узника, но тот называет себя учителем Гором. Но позднее, преданный одним из арестованных, Фучик вынужден признать своё подлинное имя, но больше фашисты от него ничего не узнают.
В камеру доходят вести о разгроме немцев под Москвой. Уводят на казнь шахтёра. Арестовывают Густину, жену Фучика. Бем делает последнюю попытку подкупить Фучика. Он привозит его в лучший ресторан Праги, возит по улицам любимого города. В ресторане Фучик узнаёт о разгроме фашистов под Сталинградом. Вновь камера. Снова воспоминания о мирной жизни, о посещении СССР. Фучик приговорён к смертной казни. Он успевает передать на волю через надзирателя рукопись своей книги. С поднятой головой, с несломленной волей уходит Юлиус Фучик на смерть.

Источник: DVB
Качество видео: SATRip
Формат видео: AVI

Видео: 704x480 (3:2), 25 fps, XviD ~ 1626 kbps avg, 0.192 bit/pixel
Аудио: 48 kHz, Dolby Digital AC3 2.0, 192 kbps

Раздача от:
Общее
Полное имя : Dorogoy.bessmertiya.1957.SATRip_[New-team]_by_AVP_Studio.avi
Формат : AVI
Формат/Информация : Audio Video Interleave
Размер файла : 1,09 Гбайт
Продолжительность : 1 ч. 25 м.
Общий поток : 1828 Кбит/сек
Программа кодирования : VirtualDubMod 1.5.10.3 | www.virtualdub-fr.org || (build 2550/release)
Библиотека кодирования : VirtualDubMod build 2550/release

Видео
Идентификатор : 0
Формат : MPEG-4 Visual
Профиль формата : Advanced Simple@L5
Параметр BVOP формата : 1
Параметр QPel формата : Нет
Параметр GMC формата : Без точки перехода
Параметр матрицы формата : Выборочная
Идентификатор кодека : XVID
Идентификатор кодека/Подсказка : XviD
Продолжительность : 1 ч. 25 м.
Битрейт : 1626 Кбит/сек
Ширина : 704 пикселя
Высота : 480 пикселей
Соотношение сторон : 3:2
Частота кадров : 25,000 кадров/сек
Цветовое пространство : YUV
Субдискретизация насыщенности : 4:2:0
Битовая глубина : 8 бит
Тип развёртки : Прогрессивная
Метод сжатия : С потерями
Бит/(Пиксели*Кадры) : 0.192
Размер потока : 993 Мбайт (89%)
Библиотека кодирования : XviD 73

Аудио
Идентификатор : 1
Формат : AC-3
Формат/Информация : Audio Coding 3
Расширение режима : CM (complete main)
Параметр Endianness формата : Big
Идентификатор кодека : 2000
Продолжительность : 1 ч. 25 м.
Вид битрейта : Постоянный
Битрейт : 192 Кбит/сек
Каналы : 2 канала
Расположение каналов : Front: L R
Частота : 48,0 КГц
Частота кадров : 31,250 кадров/сек (1536 spf)
Битовая глубина : 16 бит
Метод сжатия : С потерями
Размер потока : 117 Мбайт (11%)
Выравнивание : Разделение по промежуткам
Продолжительность промежутка : 40 мс. (1,00 видеокадр)
Время предзагрузки промежутка : 500 мс
pb.wtf



Скачать Дорогой бессмертия через торрент http://s018.radikal.ru/i502/1703/75/34002ed638b7.png Скачать фильм Дорогой бессмертия через торрент бесплантно в хорошем качестве Описание:Телефильм по книге Ю. Фучика "Слово перед казнью".В основу фильма положен спектакль Ленинградского театра им. Ленинского комсомола ... 10 10 1
Info! Золотая раздача, скачанное не засчитывается.
Торрент: Зарегистрирован [2017-03-12 09:34] · скачан: 4 раз
Статус: √ проверено
Размер: 1.09 GB
Как cкачать? Как скачать Дорогой бессмертия через торрент | qTorrent

% Раздел Тема Автор DL S | L
Кино СССР [ 1.09 GB ] Дорогой бессмертия [1957 СССР военный SATRip-AVC от AVP Studio] AVP Studio Скачать
1 | 0
Кино СССР [ 782 MB ] Дорогой бессмертия [1957 СССР военный SATRip от AVP Studio] AVP Studio Скачать
1 | 0


>> Регистрируемся здесь <<






Отзывы и комментарии о схеме читаем и пишем здесь: ---> Отзывы и комментарии о схеме

Новые благодарочки в телеграм довольных пользователей:
скриншот   скриншот   скриншот   скриншот   скриншот
    Дорогой пользователь! Огромная просьба, поблагодарите релизера, оцените раздачу и оставьте свои комментарий, если Вы скачали Дорогой бессмертия через торрент бесплатно! Внесите свою лепту в развитие PiratBit!
    Комментировать посты могут только пользователи прошедшие не сложную регистрацию
    Показать сообщения:    

    Дорогой бессмертия через торрент
    Скачать бесплатно Дорогой бессмертия
    Дорогой бессмертия скачать торрент
    Дорогой бессмертия смотреть онлайн
    Cкачать фильм Дорогой бессмертия бесплатно
    Дорогой бессмертия скачать торрент в хорошем качестве
    Дорогой бессмертия смотреть онлайн бесплатно в хорошем качестве


    Вы не можете начинать темы
    Вы не можете отвечать на сообщения
    Вы не можете редактировать свои сообщения
    Вы не можете удалять свои сообщения
    Вы не можете голосовать в опросах
    Вы не можете прикреплять файлы к сообщениям
    Вы можете скачивать файлы