новый адрес
Мега распродажа FORZA HORIZON 4 ULTIMATE+ВСЕ DLC+ОНЛАЙН всего за 499р. 349 руб. (супер цена). Внимание количество ограничено!!!

iTunes

1+1

iTunes

мы

iTunes

1

iTunes

Чернобыль

iTunes

Ральф против интернета

Лицензия

ПШазам

Лицензия

Игра престолов

Лицензия

30
pack

ВАЖНО

!!Акция!!

Alien_RageХит недели

RePack

Resident Evil 21

ИГРА 18+

pack

RePack

Metro:Exodus

!!Акция!!

Alien_Rage

RePack

fifa19

RePack

Assassins Creed: Odyssey

RePack

NEED FOR SPEED™ PAYBACK

3 сезон

9 сезон

Бесстыжие 9 сезон

Все сериалы

все сериалы на PB.wtf

RePack

FAR CRY 5
Ребята, катастрофически не хватает 1900р. для оплаты серверов за Октябрь (всвязи с блокировками трафик упал в 3 раза), 1-2р., выручайте.
  

Дорогой бессмертия (Андрей Чигинский, Георгий Товстоногов) [1957, СССР, драма, военный, SATRip-AVC от AVP Studio] pb.wtf

Дорогой бессмертия через торрент pb.wtf

Размер: 1.09 GB | Добавлен: 2 года 8 мес. назад | Торрент скачан:9 раз
Скачать  

12-03-2017 09:36 Дорогой бессмертия Скачать торрент  

Дорогой бессмертия
Страна: СССР
Производство: Леннаучфильм

Жанр: драма, военный
Год выпуска: 1957
Продолжительность: 01:25:24

Перевод: Не требуется
Cубтитры: нет
Оригинальная аудиодорожка: русский

Режиссер: Андрей Чигинский, Георгий Товстоногов

В ролях:
Иннокентий Смоктуновский, Евгения Козырева, Михаил Розанов (III), Роман Рубинштейн, Григорий Гай, Николай Сычёв, Игорь Щепетнов, Кирилл Лавров, Галина Свитич...
Об актёрах подробней

Описание:
Телефильм по книге Ю. Фучика "Слово перед казнью".
В основу фильма положен спектакль Ленинградского театра им. Ленинского комсомола по пьесе В.Брагина и Г.Товстоногова.
Чехословакия оккупирована фашистами. Измученного, избитого Юлиуса Фучика (Иннокентий Смоктуновсикй) бросают в камеру политзаключённых. В камере ещё двое - учитель и шахтёр. Сквозь бред вспоминает Фучик встречу с одним из руководителей подполья, последнюю совместную поездку с женой и арест на конспиративной квартире. В камеру приходит комиссар гестапо Бем. Он делает ещё одну попытку узнать имя узника, но тот называет себя учителем Гором. Но позднее, преданный одним из арестованных, Фучик вынужден признать своё подлинное имя, но больше фашисты от него ничего не узнают.
В камеру доходят вести о разгроме немцев под Москвой. Уводят на казнь шахтёра. Арестовывают Густину, жену Фучика. Бем делает последнюю попытку подкупить Фучика. Он привозит его в лучший ресторан Праги, возит по улицам любимого города. В ресторане Фучик узнаёт о разгроме фашистов под Сталинградом. Вновь камера. Снова воспоминания о мирной жизни, о посещении СССР. Фучик приговорён к смертной казни. Он успевает передать на волю через надзирателя рукопись своей книги. С поднятой головой, с несломленной волей уходит Юлиус Фучик на смерть.

Источник: DVB
Качество видео: SATRip-AVC
Формат видео: MKV

Видео: 712->864x576 (3:2), 25 fps, H264 ~ 1632 kbps avg, 0.159 bit/pixel
Аудио: 48 kHz, Dolby Digital AC3 2.0, 192 kbps

Раздача от:
Общее
Полное имя : Dorogoy.bessmertiya.1957.SATRip-AVC_[New-team]_by_AVP_Studio.mkv
Формат : Matroska
Версия формата : Version 2
Размер файла : 1,09 Гбайт
Продолжительность : 1 ч. 25 м.
Общий поток : 1826 Кбит/сек
Дата кодирования : UTC 2017-03-07 23:03:04
Программа кодирования : mkvmerge v6.1.0 ('Old Devil') built on Mar 4 2013 09:10:42
Библиотека кодирования : libebml v1.3.0 + libmatroska v1.4.0

Видео
Идентификатор : 1
Формат : AVC
Формат/Информация : Advanced Video Codec
Профиль формата : High@L4.1
Параметр CABAC формата : Да
Параметр ReFrames формата : 10 кадров
Идентификатор кодека : V_MPEG4/ISO/AVC
Продолжительность : 1 ч. 25 м.
Битрейт : 1632 Кбит/сек
Ширина : 712 пикселей
Высота : 576 пикселей
Соотношение сторон : 3:2
Режим частоты кадров : Постоянный
Частота кадров : 25,000 кадров/сек
Цветовое пространство : YUV
Субдискретизация насыщенности : 4:2:0
Битовая глубина : 8 бит
Тип развёртки : Прогрессивная
Бит/(Пиксели*Кадры) : 0.159
Размер потока : 976 Мбайт (87%)
Библиотека кодирования : x264 core 148 r2597 e86f3a1
Настройки программы : cabac=1 / ref=10 / deblock=1:-2:-1 / analyse=0x3:0x113 / me=umh / subme=10 / psy=1 / psy_rd=1.00:0.00 / mixed_ref=1 / me_range=32 / chroma_me=1 / trellis=2 / 8x8dct=1 / cqm=0 / deadzone=21,11 / fast_pskip=1 / chroma_qp_offset=-2 / threads=6 / lookahead_threads=1 / sliced_threads=0 / nr=0 / decimate=0 / interlaced=0 / bluray_compat=0 / constrained_intra=0 / bframes=8 / b_pyramid=2 / b_adapt=2 / b_bias=0 / direct=3 / weightb=1 / open_gop=0 / weightp=2 / keyint=250 / keyint_min=25 / scenecut=40 / intra_refresh=0 / rc=2pass / mbtree=0 / bitrate=1632 / ratetol=1.0 / qcomp=0.60 / qpmin=0 / qpmax=69 / qpstep=4 / cplxblur=20.0 / qblur=0.5 / ip_ratio=1.40 / pb_ratio=1.30 / aq=1:1.00
Default : Да
Forced : Нет

Аудио
Идентификатор : 2
Формат : AC-3
Формат/Информация : Audio Coding 3
Расширение режима : CM (complete main)
Параметр Endianness формата : Big
Идентификатор кодека : A_AC3
Продолжительность : 1 ч. 25 м.
Вид битрейта : Постоянный
Битрейт : 192 Кбит/сек
Каналы : 2 канала
Расположение каналов : Front: L R
Частота : 48,0 КГц
Частота кадров : 31,250 кадров/сек (1536 spf)
Битовая глубина : 16 бит
Метод сжатия : С потерями
Размер потока : 117 Мбайт (11%)
Default : Да
Forced : Нет
pb.wtf



Скачать Дорогой бессмертия через торрент http://s018.radikal.ru/i502/1703/75/34002ed638b7.png Скачать фильм Дорогой бессмертия через торрент бесплантно в хорошем качестве Описание:Телефильм по книге Ю. Фучика "Слово перед казнью".В основу фильма положен спектакль Ленинградского театра им. Ленинского комсомола ... 10 10 1
Info! Золотая раздача, скачанное не засчитывается.
Торрент: Зарегистрирован [2017-03-12 09:36] · скачан: 9 раз
Статус: √ проверено
Размер: 1.09 GB
Как cкачать? Как скачать Дорогой бессмертия через торрент | qTorrent

% Раздел Тема Автор DL S | L
Кино СССР [ 782 MB ] Дорогой бессмертия [1957 СССР военный SATRip от AVP Studio] AVP Studio Скачать
1 | 0
Кино СССР [ 1.09 GB ] Дорогой бессмертия [1957 СССР военный SATRip от AVP Studio] AVP Studio Скачать
1 | 0


>> Регистрируемся здесь <<






Отзывы и комментарии о схеме читаем и пишем здесь: ---> Отзывы и комментарии о схеме

Новые благодарочки в телеграм довольных пользователей:
скриншот   скриншот   скриншот   скриншот   скриншот
    Дорогой пользователь! Огромная просьба, поблагодарите релизера, оцените раздачу и оставьте свои комментарий, если Вы скачали Дорогой бессмертия через торрент бесплатно! Внесите свою лепту в развитие PiratBit!
    Комментировать посты могут только пользователи прошедшие не сложную регистрацию
    Показать сообщения:    

    Дорогой бессмертия через торрент
    Скачать бесплатно Дорогой бессмертия
    Дорогой бессмертия скачать торрент
    Дорогой бессмертия смотреть онлайн
    Cкачать фильм Дорогой бессмертия бесплатно
    Дорогой бессмертия скачать торрент в хорошем качестве
    Дорогой бессмертия смотреть онлайн бесплатно в хорошем качестве


    Вы не можете начинать темы
    Вы не можете отвечать на сообщения
    Вы не можете редактировать свои сообщения
    Вы не можете удалять свои сообщения
    Вы не можете голосовать в опросах
    Вы не можете прикреплять файлы к сообщениям
    Вы можете скачивать файлы