Ссылка на приватное зеркало нашего сайта всего за 1$. Внимание количество ограничено!!!

2 сезон

iTunes

1 сезон

1

iTunes

iTunes

iTunes

1 сезон

RePack

30

ИГРА 18+

pack

ВАЖНО

!!Акция!!

Alien_RageХит недели

RePack

MK11
pack

Забери бонус

RePack

jed

!!Акция!!

Alien_Rage

RePack

fifa19

RePack

Assassins Creed: Odyssey

RePack

NEED FOR SPEED™ PAYBACK

4 сезон

9 сезон

Бесстыжие 9 сезон

Все сериалы

все сериалы на PB.wtf

RePack

FAR CRY 5
  

Соседка / The Girl Next Door (Люк Гринфилд) [2004, мелодрама, комедия, BDRip 1080p] / Расширенная версия / Dub, 3x MVO, 2х AVO pb.wtf

Соседка через торрент pb.wtf

Размер: 12.52 GB | Добавлен: 3 года 7 мес. назад | Торрент скачан:173 раза
Скачать  

12-03-2017 10:04 Соседка Скачать торрент  


Соседка / The Girl Next Door

Год выпуска: 2004
Страна: США
Жанр: мелодрама, комедия

Продолжительность: 01:49:28
Перевод: Дубляж; Профессиональный многоголосый; Авторский
Субтитры: русские (Full), русские (Full [Е. Клавдиенко]), русские (Forced), английские (Full)
Режиссер: Люк Гринфилд
В ролях:

Эмиль Хирш (Matthew Kidman), Элиша Катберт (Danielle), Тимоти Олифант (Kelly), Джеймс Римар (Hugo Posh), Крис Маркетт (Eli), Пол Дано (Klitz), Тимоти Боттомс (Mr. Kidman), Донна Баллок (Mrs. Kidman), Джейкоб Янг (Hunter), Брайан Колодзей (Derek), Брэндон Айронс (Troy), Аманда Свистен (April)
Описание:
Старшеклассник Меттью, мечтая о карьере политика, между тем обнаруживает, что у него появилась новая соседка, неотразимая 19-летняя блондинка Дениэль. Цветочно-конфетная стадия пролетает мимолетно, и вот уже ослепленной любовью Меттью уверен, что он нашел женщину всей своей жизни.
Рейтинг:

MPAA: R - Лицам до 17 лет обязательно присутствие взрослого
Качество: BDRip 1080p
Формат: MKV
Видео: AVC, 1920x1040 (1.85:1), 12550 kbps, 23,976 fps, 0,262 bpp
Аудио №1: русский / DTS / 5.1 / 48 kHz / 768 kbps / 24 bit |DUB, BD EUR|
Аудио №2: русский / AC3 / 2.0 / 48 kHz / 192 kbps / |MVO|
Аудио №3: русский / AC3 / 2.0 / 48 kHz / 192 kbps / |MVO [НТВ+]|
Аудио №4: русский / AC3 / 2.0 / 48 kHz / 192 kbps / |MVO|
Аудио №5: русский / AC3 / 5.1 / 48 kHz / 448 kbps / |AVO [А. Королёв]|
Аудио №6: русский / AC3 / 2.0 / 48 kHz / 192 kbps / |AVO [Е. Рудой]|
Аудио №7: английский / DTS / 5.1 / 48 kHz / 1509 kbps / 24 bit
Навигация по главам: есть
Автор рипа: ivandubskoj
General
Unique ID : 243842088948930710343224800995407307812 (0xB77247304ECA5D7EB2D9F1352D242424)
Complete name : E:\The.Girl.Next.Door.Unrated.2004.BDRip.1080p.mkv
Format : Matroska
Format version : Version 4 / Version 2
File size : 12.5 GiB
Duration : 1 h 49 min
Overall bit rate : 16.4 Mb/s
Movie name : Соседка / The Girl Next Door [Unrated Version] (2004) BDRip (1080p)
Encoded date : UTC 2014-09-16 07:08:54
Writing application : mkvmerge v6.1.0 ('Old Devil') built on Mar 4 2013 09:10:42
Writing library : libebml v1.3.0 + libmatroska v1.4.0

Video
ID : 1
Format : AVC
Format/Info : Advanced Video Codec
Format profile : High@L4.1
Format settings, CABAC : Yes
Format settings, ReFrames : 4 frames
Codec ID : V_MPEG4/ISO/AVC
Duration : 1 h 49 min
Bit rate : 12.6 Mb/s
Width : 1 920 pixels
Height : 1 040 pixels
Display aspect ratio : 1.85:1
Frame rate mode : Constant
Frame rate : 23.976 (24000/1001) FPS
Color space : YUV
Chroma subsampling : 4:2:0
Bit depth : 8 bits
Scan type : Progressive
Bits/(Pixel*Frame) : 0.262
Stream size : 9.60 GiB (77%)
Title : Соседка / The Girl Next Door [Unrated Version] (2004)
Language : English
Default : Yes
Forced : No

Audio #1
ID : 2
Format : DTS
Format/Info : Digital Theater Systems
Mode : 16
Format settings, Endianness : Big
Codec ID : A_DTS
Duration : 1 h 49 min
Bit rate mode : Constant
Bit rate : 768 kb/s
Channel(s) : 6 channels
Channel positions : Front: L C R, Side: L R, LFE
Sampling rate : 48.0 kHz
Frame rate : 93.750 FPS (512 spf)
Bit depth : 24 bits
Compression mode : Lossy
Stream size : 601 MiB (5%)
Title : DUB, BD EUR [XX Век Фокс СНГ]
Language : Russian
Default : Yes
Forced : No

Audio #2
ID : 3
Format : AC-3
Format/Info : Audio Coding 3
Mode extension : CM (complete main)
Format settings, Endianness : Big
Codec ID : A_AC3
Duration : 1 h 49 min
Bit rate mode : Constant
Bit rate : 192 kb/s
Channel(s) : 2 channels
Channel positions : Front: L R
Sampling rate : 48.0 kHz
Frame rate : 31.250 FPS (1536 spf)
Compression mode : Lossy
Stream size : 150 MiB (1%)
Title : MVO
Language : Russian
Default : No
Forced : No

Audio #3
ID : 4
Format : AC-3
Format/Info : Audio Coding 3
Mode extension : CM (complete main)
Format settings, Endianness : Big
Codec ID : A_AC3
Duration : 1 h 49 min
Bit rate mode : Constant
Bit rate : 192 kb/s
Channel(s) : 2 channels
Channel positions : Front: L R
Sampling rate : 48.0 kHz
Frame rate : 31.250 FPS (1536 spf)
Compression mode : Lossy
Stream size : 150 MiB (1%)
Title : MVO [НТВ+]
Language : Russian
Default : No
Forced : No

Audio #4
ID : 5
Format : AC-3
Format/Info : Audio Coding 3
Mode extension : CM (complete main)
Format settings, Endianness : Big
Codec ID : A_AC3
Duration : 1 h 49 min
Bit rate mode : Constant
Bit rate : 192 kb/s
Channel(s) : 2 channels
Channel positions : Front: L R
Sampling rate : 48.0 kHz
Frame rate : 31.250 FPS (1536 spf)
Compression mode : Lossy
Stream size : 150 MiB (1%)
Title : MVO
Language : Russian
Default : No
Forced : No

Audio #5
ID : 6
Format : AC-3
Format/Info : Audio Coding 3
Mode extension : CM (complete main)
Format settings, Endianness : Big
Codec ID : A_AC3
Duration : 1 h 49 min
Bit rate mode : Constant
Bit rate : 448 kb/s
Channel(s) : 6 channels
Channel positions : Front: L C R, Side: L R, LFE
Sampling rate : 48.0 kHz
Frame rate : 31.250 FPS (1536 spf)
Compression mode : Lossy
Stream size : 351 MiB (3%)
Title : AVO [А. Королёв]
Language : Russian
Default : No
Forced : No

Audio #6
ID : 7
Format : AC-3
Format/Info : Audio Coding 3
Mode extension : CM (complete main)
Format settings, Endianness : Big
Codec ID : A_AC3
Duration : 1 h 49 min
Bit rate mode : Constant
Bit rate : 192 kb/s
Channel(s) : 2 channels
Channel positions : Front: L R
Sampling rate : 48.0 kHz
Frame rate : 31.250 FPS (1536 spf)
Compression mode : Lossy
Stream size : 150 MiB (1%)
Title : AVO [Е. Рудой]
Language : Russian
Default : No
Forced : No

Audio #7
ID : 8
Format : DTS
Format/Info : Digital Theater Systems
Mode : 16
Format settings, Endianness : Big
Codec ID : A_DTS
Duration : 1 h 49 min
Bit rate mode : Constant
Bit rate : 1 509 kb/s
Channel(s) : 6 channels
Channel positions : Front: L C R, Side: L R, LFE
Sampling rate : 48.0 kHz
Frame rate : 93.750 FPS (512 spf)
Bit depth : 24 bits
Compression mode : Lossy
Stream size : 1.15 GiB (9%)
Title : Original
Language : English
Default : No
Forced : No

Text #1
ID : 9
Format : UTF-8
Codec ID : S_TEXT/UTF8
Codec ID/Info : UTF-8 Plain Text
Title : Full
Language : Russian
Default : No
Forced : No

Text #2
ID : 10
Format : UTF-8
Codec ID : S_TEXT/UTF8
Codec ID/Info : UTF-8 Plain Text
Title : Full [Е. Клавдиенко]
Language : Russian
Default : No
Forced : No

Text #3
ID : 11
Format : UTF-8
Codec ID : S_TEXT/UTF8
Codec ID/Info : UTF-8 Plain Text
Title : Forced
Language : Russian
Default : No
Forced : No

Text #4
ID : 12
Format : UTF-8
Codec ID : S_TEXT/UTF8
Codec ID/Info : UTF-8 Plain Text
Title : Full
Language : English
Default : No
Forced : No

Menu
00:00:00.000 : en:Main Titles
00:03:14.820 : en:Blank Page
00:04:54.586 : en:Prom Fever
00:07:25.153 : en:Cutting Class
00:10:07.190 : en:The Girl Next Door
00:15:11.077 : en:Payback
00:21:10.186 : en:Go With It
00:25:47.254 : en:Matt's Girl
00:29:47.869 : en:Pron Star
00:34:42.247 : en:Being the Man
00:38:41.277 : en:Kelly
00:45:05.870 : en:Sex Ed
00:49:22.793 : en:Pressing Flesh
00:55:30.077 : en:Hot Directors
00:58:45.772 : en:Believing
01:00:52.023 : en:Squeezing Juice
01:05:16.454 : en:Consequences
01:08:33.401 : en:Trippin' Out
01:11:21.152 : en:Moral Fiber
01:15:03.374 : en:Zero Balance
01:18:32.249 : en:Hatching a Plan
01:20:56.518 : en:Senior Prom
01:23:44.228 : en:Lights, Camera...
01:27:14.104 : en:Action!
01:33:22.889 : en:Being Crazy
01:35:40.902 : en:Showtime
01:40:31.275 : en:I'll Never Forget
01:43:49.390 : en:End Titles
Скриншоты:
pb.wtf



Скачать Соседка через торрент http://funkyimg.com/i/2q8AT.png Скачать фильм Соседка через торрент бесплантно в хорошем качестве Описание: Старшеклассник Меттью, мечтая о карьере политика, между тем обнаруживает, что у него появилась новая соседка, неотразимая ... 8.8 10 10
Торрент: Зарегистрирован [2017-03-12 10:04] · скачан: 173 раз
Статус: # сомнительно
Размер: 12.52 GB
Как cкачать? Как скачать Соседка через торрент | qTorrent

28-11-2019 20:33  

Отключить всю рекламу на сайте

20-10-2019 19:36 Соседка Скачать торрент  

Очень приятная соседка! Смешная, молодёжная комедия!pb.wtf



    Дорогой пользователь! Огромная просьба, поблагодарите релизера, оцените раздачу и оставьте свои комментарий, если Вы скачали Соседка через торрент бесплатно! Внесите свою лепту в развитие PiratBit!
    Комментировать посты могут только пользователи прошедшие не сложную регистрацию
    Показать сообщения:    

    Соседка через торрент
    Скачать бесплатно Соседка
    Соседка скачать торрент
    Соседка смотреть онлайн
    Cкачать фильм Соседка бесплатно
    Соседка скачать торрент в хорошем качестве
    Соседка смотреть онлайн бесплатно в хорошем качестве


    Вы не можете начинать темы
    Вы не можете отвечать на сообщения
    Вы не можете редактировать свои сообщения
    Вы не можете удалять свои сообщения
    Вы не можете голосовать в опросах
    Вы не можете прикреплять файлы к сообщениям
    Вы можете скачивать файлы