2 сезон

iTunes

1 сезон

1

iTunes

iTunes

iTunes

1 сезон

RePack

30

ИГРА 18+

pack

ВАЖНО

!!Акция!!

Alien_RageХит недели

RePack

MK11
pack

Забери бонус

RePack

jed

!!Акция!!

Alien_Rage

RePack

fifa19

RePack

Assassins Creed: Odyssey

RePack

NEED FOR SPEED™ PAYBACK

4 сезон

9 сезон

Бесстыжие 9 сезон

Все сериалы

все сериалы на PB.wtf

RePack

FAR CRY 5
  

Осадное положение / État de siège (Коста-Гаврас) [1972, драма, триллер, BDRip 1080p by msltel] MVO, VO pb.wtf

Осадное положение через торрент pb.wtf

Размер: 15.92 GB | Добавлен: 3 года 7 мес. назад | Торрент скачан:8 раз
Скачать  

13-03-2017 10:12 Осадное положение Скачать торрент  

Название: Осадное положение
Оригинальное название: État de siège
Год выпуска: 1972
Страна: Франция, Италия, Германия (ФРГ)
Жанр: драма, триллер
Продолжительность: 01:56:13
Перевод: пофессиональный многоголосый, любительский одноголосый

Режиссёр: Коста-Гаврас

В ролях: Ив Монтан, Ренато Сальватори, О.Э. Хассе, Жак Вебер, Жан-Люк Бидо, Морис Тейнак, Иветт Этьеван, Эванджелин Петерсон, Харальд Вольф, Немезио Антунес

Описание: Начало 1970-х. В Латинской Америке партизанами похищен государственный служащий Соединенных Штатов, который был консультантом местных спецслужб. И в этот момент в стране начинается гражданская война...



Качество: BDRip 1080p
Формат: MKV
Видео: MPEG-4 AVC, 19 Mбит/с, 1792х1080, 25 кадра/с
Аудио 1: русский, AC3, 192 kbps, 2 ch, 48 kHz [профессиональный многоголосый, Спб, 5 канал]
Аудио 2: русский, AC3, 192 kbps, 2 ch, 48 kHz [любительский одноголосый]
Аудио 3: фрацузский, AC3, 192 kbps, 2 ch, 48 kHz [оригинал]
Субтитры: английские
Имеются неименованные главы/чаптеры.
Общее
Уникальный идентификатор : 240612094410618675372089936402770860665 (0xB5043429A9827B78B7C8689582B89A79)
Полное имя : D:\Video\Осадное положение.1972.BDRip.1080p by msltel.mkv
Формат : Matroska
Версия формата : Version 4 / Version 2
Размер файла : 15,9 Гбайт
Продолжительность : 1 ч. 56 м.
Общий поток : 19,6 Мбит/сек
Название фильма : Rip by msltel
Дата кодирования : UTC 2017-03-13 07:46:42
Программа кодирования : mkvmerge v8.2.0 ('World of Adventure') 64bit
Библиотека кодирования : libebml v1.3.1 + libmatroska v1.4.2

Видео
Идентификатор : 1
Формат : AVC
Формат/Информация : Advanced Video Codec
Профиль формата : High@L4.1
Параметр CABAC формата : Да
Параметр ReFrames формата : 4 кадра
Идентификатор кодека : V_MPEG4/ISO/AVC
Продолжительность : 1 ч. 56 м.
Битрейт : 19,0 Мбит/сек
Ширина : 1792 пикселя
Высота : 1080 пикселей
Соотношение сторон : 5:3
Режим частоты кадров : Постоянный
Частота кадров : 25,000 кадров/сек
Цветовое пространство : YUV
Субдискретизация насыщенности : 4:2:0
Битовая глубина : 8 бит
Тип развёртки : Прогрессивная
Бит/(Пиксели*Кадры) : 0.393
Размер потока : 15,4 Гбайт (97%)
Библиотека кодирования : x264 core 146 r2538 121396c
Настройки программы : cabac=1 / ref=4 / deblock=1:-1:-1 / analyse=0x3:0x113 / me=umh / subme=11 / psy=1 / psy_rd=1.00:0.15 / mixed_ref=1 / me_range=32 / chroma_me=1 / trellis=2 / 8x8dct=1 / cqm=0 / deadzone=21,11 / fast_pskip=0 / chroma_qp_offset=-3 / threads=6 / lookahead_threads=1 / sliced_threads=0 / nr=0 / decimate=1 / interlaced=0 / bluray_compat=0 / constrained_intra=0 / bframes=14 / b_pyramid=2 / b_adapt=2 / b_bias=0 / direct=1 / weightb=1 / open_gop=0 / weightp=2 / keyint=250 / keyint_min=25 / scenecut=40 / intra_refresh=0 / rc_lookahead=40 / rc=crf / mbtree=0 / crf=20.8 / qcomp=0.60 / qpmin=0 / qpmax=69 / qpstep=4 / vbv_maxrate=62500 / vbv_bufsize=78125 / crf_max=0.0 / nal_hrd=none / filler=0 / ip_ratio=1.40 / pb_ratio=1.30 / aq=1:1.00
Язык : French
Default : Да
Forced : Нет

Аудио #1
Идентификатор : 2
Формат : AC-3
Формат/Информация : Audio Coding 3
Параметр Endianness формата : Big
Идентификатор кодека : A_AC3
Продолжительность : 1 ч. 56 м.
Вид битрейта : Постоянный
Битрейт : 192 Кбит/сек
Каналы : 2 канала
Расположение каналов : Front: L R
Частота : 48,0 КГц
Частота кадров : 31,250 кадров/сек (1536 spf)
Битовая глубина : 16 бит
Метод сжатия : С потерями
Размер потока : 160 Мбайт (1%)
Заголовок : MVO (Спб, 5 канал)
Язык : Russian
ServiceKind/String : Complete Main
Default : Да
Forced : Нет

Аудио #2
Идентификатор : 3
Формат : AC-3
Формат/Информация : Audio Coding 3
Параметр Endianness формата : Big
Идентификатор кодека : A_AC3
Продолжительность : 1 ч. 56 м.
Вид битрейта : Постоянный
Битрейт : 192 Кбит/сек
Каналы : 2 канала
Расположение каналов : Front: L R
Частота : 48,0 КГц
Частота кадров : 31,250 кадров/сек (1536 spf)
Битовая глубина : 16 бит
Метод сжатия : С потерями
Размер потока : 160 Мбайт (1%)
Заголовок : любительский одноголосый
Язык : Russian
ServiceKind/String : Complete Main
Default : Нет
Forced : Нет

Аудио #3
Идентификатор : 4
Формат : AC-3
Формат/Информация : Audio Coding 3
Параметр Endianness формата : Big
Идентификатор кодека : A_AC3
Продолжительность : 1 ч. 56 м.
Вид битрейта : Постоянный
Битрейт : 192 Кбит/сек
Каналы : 2 канала
Расположение каналов : Front: L R
Частота : 48,0 КГц
Частота кадров : 31,250 кадров/сек (1536 spf)
Битовая глубина : 16 бит
Метод сжатия : С потерями
Размер потока : 160 Мбайт (1%)
Заголовок : original
Язык : French
ServiceKind/String : Complete Main
Default : Нет
Forced : Нет

Текст
Идентификатор : 5
Формат : UTF-8
Идентификатор кодека : S_TEXT/UTF8
Идентификатор кодека/Информация : UTF-8 Plain Text
Продолжительность : 1 ч. 52 м.
Битрейт : 59 бит/сек
ElementCount : 1372
Размер потока : 49,3 Кбайт (0%)
Заголовок : английские
Язык : English
Default : Нет
Forced : Нет

Меню
00:00:00.000 : en:00:00:00.000
00:07:31.982 : en:00:07:31.982
00:12:08.933 : en:00:12:08.933
00:16:28.695 : en:00:16:28.695
00:22:58.070 : en:00:22:58.070
00:26:18.616 : en:00:26:18.616
00:31:45.796 : en:00:31:45.796
00:38:30.478 : en:00:38:30.478
00:45:05.922 : en:00:45:05.922
00:46:24.742 : en:00:46:24.742
00:53:15.579 : en:00:53:15.579
00:59:46.757 : en:00:59:46.757
01:06:39.673 : en:01:06:39.673
01:10:28.990 : en:01:10:28.990
01:12:41.047 : en:01:12:41.047
01:22:33.043 : en:01:22:33.043
01:29:26.611 : en:01:29:26.611
01:37:04.121 : en:01:37:04.121
01:44:51.258 : en:01:44:51.258
01:52:05.987 : en:01:52:05.987
pb.wtf



Скачать Осадное положение через торрент http://hostpic.gq/img/2017-03/11/905wsmq6btu3fuf7zj6dkpckl.jpg Скачать фильм Осадное положение через торрент бесплантно в хорошем качестве Описание: Начало 1970-х. В Латинской Америке партизанами похищен государственный служащий Соединенных Штатов, который был консультантом ... 10 10 2
Info! Золотая раздача, скачанное не засчитывается.
Торрент: Зарегистрирован [2017-03-13 10:12] · скачан: 8 раз
Статус: √ проверено
Размер: 15.92 GB
Как cкачать? Как скачать Осадное положение через торрент | qTorrent

% Раздел Тема Автор DL S | L
Фильмы [HD 720p, 1080p] (Хороший звук DUB, MVO) [ 5.62 GB ] Осадное положение / État de siège [1972 BDRip 720p by msltel] MVO VO msltel Скачать
1 | 0

28-11-2019 20:33  

Отключить всю рекламу на сайте

    Дорогой пользователь! Огромная просьба, поблагодарите релизера, оцените раздачу и оставьте свои комментарий, если Вы скачали Осадное положение через торрент бесплатно! Внесите свою лепту в развитие PiratBit!
    Комментировать посты могут только пользователи прошедшие не сложную регистрацию
    Показать сообщения:    

    Осадное положение через торрент
    Скачать бесплатно Осадное положение
    Осадное положение скачать торрент
    Осадное положение смотреть онлайн
    Cкачать фильм Осадное положение бесплатно
    Осадное положение скачать торрент в хорошем качестве
    Осадное положение смотреть онлайн бесплатно в хорошем качестве


    Вы не можете начинать темы
    Вы не можете отвечать на сообщения
    Вы не можете редактировать свои сообщения
    Вы не можете удалять свои сообщения
    Вы не можете голосовать в опросах
    Вы не можете прикреплять файлы к сообщениям
    Вы можете скачивать файлы