новый адрес
Мега распродажа FORZA HORIZON 4 ULTIMATE+ВСЕ DLC+ОНЛАЙН всего за 499р. 349 руб. (супер цена). Внимание количество ограничено!!!

iTunes

1+1

iTunes

мы

iTunes

1

iTunes

Чернобыль

iTunes

Ральф против интернета

Лицензия

ПШазам

Лицензия

Игра престолов

Лицензия

30
pack

ВАЖНО

!!Акция!!

Alien_RageХит недели

RePack

Resident Evil 21

ИГРА 18+

pack

RePack

Metro:Exodus

!!Акция!!

Alien_Rage

RePack

fifa19

RePack

Assassins Creed: Odyssey

RePack

NEED FOR SPEED™ PAYBACK

3 сезон

9 сезон

Бесстыжие 9 сезон

Все сериалы

все сериалы на PB.wtf

RePack

FAR CRY 5
Ребята, катастрофически не хватает 1900р. для оплаты серверов за Октябрь (всвязи с блокировками трафик упал в 3 раза), 1-2р., выручайте.
  

Его время придет (Мажит Бегалин) [1957, СССР, биография, история, SATRip от AVP Studio] pb.wtf

Его время придет через торрент pb.wtf

Размер: 761 MB | Добавлен: 2 года 8 мес. назад | Торрент скачан:4 раза
Скачать  

13-03-2017 10:43 Его время придет Скачать торрент  

Его время придет
Страна: СССР
Производство: Ленфильм, Алма-Атинская студия

Жанр: биография, история
Год выпуска: 1957
Продолжительность: 01:29:50

Перевод: Не требуется
Cубтитры: нет
Оригинальная аудиодорожка: русский

Режиссер: Мажит Бегалин

В ролях:
Нурмухан Жантурин, Геннадий Карнович-Валуа, Владимир Честноков, Олег Лебедев (V), Камаси Умурзаков, Калыбек Куанышбаев, Шайза Ахметова, Шахан Мусин, Курманбек Жандарбеков, А. Мухамедьяров, Ахмед Шамиев, Шамши Тюменбаев, Геннадий Мичурин, Пётр Чернов, Константин Барташевич, Адриан Филиппов, Михаил Погоржельский, Георгий Черноволенко, Константин Адашевский, Алексей Кельберер, Павел Панков...
Об актёрах подробней

Описание:
О знаменитом просветителе XIX века - сыне казахского народа Чокане Валиханове, ученом-этнографе и известном путешественнике.

Источник: DVB
Качество видео: SATRip
Формат видео: AVI

Видео: 640x480 (4:3), 25 fps, XviD ~ 1047 kbps avg, 0.136 bit/pixel
Аудио: 48 kHz, MP3 2.0, 128 kbps

Раздача от:
Общее
Полное имя : Ego.vremya.pridet.1957.SATRip-745_[New-team]_by_AVP_Studio.avi
Формат : AVI
Формат/Информация : Audio Video Interleave
Размер файла : 761 Мбайт
Продолжительность : 1 ч. 29 м.
Общий поток : 1185 Кбит/сек
Программа кодирования : VirtualDubMod 1.5.10.3 | www.virtualdub-fr.org || (build 2550/release)
Библиотека кодирования : VirtualDubMod build 2550/release

Видео
Идентификатор : 0
Формат : MPEG-4 Visual
Профиль формата : Advanced Simple@L5
Параметр BVOP формата : 1
Параметр QPel формата : Нет
Параметр GMC формата : Без точки перехода
Параметр матрицы формата : Выборочная
Идентификатор кодека : XVID
Идентификатор кодека/Подсказка : XviD
Продолжительность : 1 ч. 29 м.
Битрейт : 1047 Кбит/сек
Ширина : 640 пикселей
Высота : 480 пикселей
Соотношение сторон : 4:3
Частота кадров : 25,000 кадров/сек
Цветовое пространство : YUV
Субдискретизация насыщенности : 4:2:0
Битовая глубина : 8 бит
Тип развёртки : Прогрессивная
Метод сжатия : С потерями
Бит/(Пиксели*Кадры) : 0.136
Размер потока : 673 Мбайт (88%)
Библиотека кодирования : XviD 73

Аудио
Идентификатор : 1
Формат : MPEG Audio
Версия формата : Version 1
Профиль формата : Layer 3
Идентификатор кодека : 55
Идентификатор кодека/Подсказка : MP3
Продолжительность : 1 ч. 29 м.
Вид битрейта : Постоянный
Битрейт : 128 Кбит/сек
Каналы : 2 канала
Частота : 48,0 КГц
Метод сжатия : С потерями
Размер потока : 82,2 Мбайт (11%)
Выравнивание : Соединение по промежуткам
Продолжительность промежутка : 40 мс. (1,00 видеокадр)
Время предзагрузки промежутка : 504 мс.
Библиотека кодирования : LAME3.99r
Настройки программы : -m s -V 4 -q 2 -lowpass 17 -b 128
pb.wtf



Скачать Его время придет через торрент http://s019.radikal.ru/i614/1703/4b/43e9448b5e6d.png Скачать фильм Его время придет через торрент бесплантно в хорошем качестве Описание:О знаменитом просветителе XIX века - сыне казахского народа Чокане Валиханове, ученом-этнографе и известном путешественнике. ... 10 10 1
Info! Золотая раздача, скачанное не засчитывается.
Торрент: Зарегистрирован [2017-03-13 10:43] · скачан: 4 раз
Статус: √ проверено
Размер: 761 MB
Как cкачать? Как скачать Его время придет через торрент | qTorrent

% Раздел Тема Автор DL S | L
Кино СССР [ 1.09 GB ] Его время придет [1957 СССР биография история SATRip-AVC от AVP Studio] AVP Studio Скачать
1 | 0
Кино СССР [ 1.09 GB ] Его время придет [1957 СССР биография история SATRip от AVP Studio] AVP Studio Скачать
1 | 0


>> Регистрируемся здесь <<






Отзывы и комментарии о схеме читаем и пишем здесь: ---> Отзывы и комментарии о схеме

Новые благодарочки в телеграм довольных пользователей:
скриншот   скриншот   скриншот   скриншот   скриншот
    Дорогой пользователь! Огромная просьба, поблагодарите релизера, оцените раздачу и оставьте свои комментарий, если Вы скачали Его время придет через торрент бесплатно! Внесите свою лепту в развитие PiratBit!
    Комментировать посты могут только пользователи прошедшие не сложную регистрацию
    Показать сообщения:    

    Его время придет через торрент
    Скачать бесплатно Его время придет
    Его время придет скачать торрент
    Его время придет смотреть онлайн
    Cкачать фильм Его время придет бесплатно
    Его время придет скачать торрент в хорошем качестве
    Его время придет смотреть онлайн бесплатно в хорошем качестве


    Вы не можете начинать темы
    Вы не можете отвечать на сообщения
    Вы не можете редактировать свои сообщения
    Вы не можете удалять свои сообщения
    Вы не можете голосовать в опросах
    Вы не можете прикреплять файлы к сообщениям
    Вы можете скачивать файлы