2 сезон

iTunes

1 сезон

1

iTunes

iTunes

iTunes

1 сезон

RePack

30

ИГРА 18+

pack

ВАЖНО

!!Акция!!

Alien_RageХит недели

RePack

MK11
pack

Забери бонус

RePack

jed

!!Акция!!

Alien_Rage

RePack

fifa19

RePack

Assassins Creed: Odyssey

RePack

NEED FOR SPEED™ PAYBACK

4 сезон

9 сезон

Бесстыжие 9 сезон

Все сериалы

все сериалы на PB.wtf

RePack

FAR CRY 5
  

Домохозяйка / HouseSitter (Фрэнк Оз) [1992, комедия, мелодрама, BDRip 720p by msltel] 2 x MVO, DVO, AVO pb.wtf

Домохозяйка через торрент pb.wtf

Размер: 5.65 GB | Добавлен: 3 года 7 мес. назад | Торрент скачан:51 раз
Скачать  

13-03-2017 11:14 Домохозяйка Скачать торрент  

Название: Домохозяйка
Оригинальное название: HouseSitter
Год выпуска: 1992
Страна: США
Жанр: комедия, мелодрама
Продолжительность: 01:41:29
Перевод: профессиональный многоголосый, профессиональный двухголосый, авторский

Режиссёр: Фрэнк Оз

В ролях: Стив Мартин, Голди Хоун, Дэна Дилэйни, Джули Харрис, Дональд Моффет, Питер МакНикол, Ричард Б. Шалл, Лорел Кронин, Рой Купер, Кристофер Дуранг, Хейвуд Хейл Браун, Черри Джонс, Васек Симек, Сюзанна Уэнг, Мэри Клуг, Элис Даффи, Кен Чизман, Тони В., Рикардо Питтс-Уайли, Белль МакДональд

Описание: Талантливый архитектор Ньютон Дейвис строит дом своей мечты в родном городке и предлагает его вместе с рукой и сердцем любимой девушке Бекки. Но Бекки отвергает и первое, и второе, и третье. Расстроенный Ньютон едет в Бостон, а дом остаётся пустовать. В Бостоне Ньютон знакомится с красивой официанткой по имени Гвен. Их отношения длятся всего одну ночь, но история про бесхозяйное гнёздышко западает в душу девушки. Она едет в родной город Ньютона Дэйвиса и вселяется в дом, выдавая себя за жену архитектора. Она знакомится с его отцом и соседями, выписывает огромные счета на имя «мужа» и когда Ньютон заезжает в родной город, чтобы погрустить в стенах пустующего дома, он попадает в кольцо кредиторов и соседей, поздравляющих его со вступлением в брак. Бекки, отвергнувшая Ньютона, моментально влюбляется в него, узнав, что он женат. Ньютон просит Гвен еще немножко поиграть роль его жены, чтобы окончательно завоевать сердце Бекки, но вскоре начинает понимать, что все знакомые и родственники очень любят Гвен...



Качество: BDRip 720p
Формат: MKV
Видео: MPEG-4 AVC, 6605 Кбит/с, 1280x694, 23,976 кадра/с
Аудио 1: русский, AC3, 384 kbps, 6 ch, 48 kHz [профессиональный многоголосый, OPT]
Аудио 2: русский, AC3, 224 kbps, 2 ch, 48 kHz [профессиональный многоголосый, CTC]
Аудио 3: русский, AC3, 384 kbps, 6 ch, 48 kHz [профессиональный двухголосый, R5]
Аудио 4: русский, AC3, 192 kbps, 2 ch, 48 kHz [авторский, Юрий Живов]
Аудио 5: английский, AC3, 192 kbps, 2 ch, 48 kHz [оригинал]
Субтитры 1: русские
Субтитры 2: английские
Имеются неименованные главы/чаптеры.
Общее
Уникальный идентификатор : 246540709542689879178502283403284628628 (0xB97A0374DBDC4A2CB4160426A142C494)
Полное имя : D:\Video\Домохозяйка.1992.BDRip.720p by msltel.mkv
Формат : Matroska
Версия формата : Version 4 / Version 2
Размер файла : 5,65 Гбайт
Продолжительность : 1 ч. 41 м.
Общий поток : 7974 Кбит/сек
Название фильма : Rip by msltel
Дата кодирования : UTC 2017-03-12 12:32:54
Программа кодирования : mkvmerge v8.2.0 ('World of Adventure') 64bit
Библиотека кодирования : libebml v1.3.1 + libmatroska v1.4.2

Видео
Идентификатор : 1
Формат : AVC
Формат/Информация : Advanced Video Codec
Профиль формата : High@L4.1
Параметр CABAC формата : Да
Параметр ReFrames формата : 9 кадров
Идентификатор кодека : V_MPEG4/ISO/AVC
Продолжительность : 1 ч. 41 м.
Битрейт : 6605 Кбит/сек
Ширина : 1280 пикселей
Высота : 694 пикселя
Соотношение сторон : 1,85:1
Режим частоты кадров : Постоянный
Частота кадров : 23,976 (24000/1001) кадра/сек
Цветовое пространство : YUV
Субдискретизация насыщенности : 4:2:0
Битовая глубина : 8 бит
Тип развёртки : Прогрессивная
Бит/(Пиксели*Кадры) : 0.310
Размер потока : 4,67 Гбайт (83%)
Библиотека кодирования : x264 core 146 r2538 121396c
Настройки программы : cabac=1 / ref=9 / deblock=1:-1:-1 / analyse=0x3:0x113 / me=umh / subme=11 / psy=1 / psy_rd=1.00:0.15 / mixed_ref=1 / me_range=32 / chroma_me=1 / trellis=2 / 8x8dct=1 / cqm=0 / deadzone=21,11 / fast_pskip=0 / chroma_qp_offset=-3 / threads=6 / lookahead_threads=1 / sliced_threads=0 / nr=0 / decimate=1 / interlaced=0 / bluray_compat=0 / constrained_intra=0 / bframes=8 / b_pyramid=2 / b_adapt=2 / b_bias=0 / direct=1 / weightb=1 / open_gop=0 / weightp=2 / keyint=230 / keyint_min=23 / scenecut=40 / intra_refresh=0 / rc_lookahead=40 / rc=crf / mbtree=0 / crf=18.7 / qcomp=0.60 / qpmin=0 / qpmax=69 / qpstep=4 / vbv_maxrate=62500 / vbv_bufsize=78125 / crf_max=0.0 / nal_hrd=none / filler=0 / ip_ratio=1.40 / pb_ratio=1.30 / aq=1:1.00
Язык : English
Default : Да
Forced : Нет

Аудио #1
Идентификатор : 2
Формат : AC-3
Формат/Информация : Audio Coding 3
Параметр Endianness формата : Big
Идентификатор кодека : A_AC3
Продолжительность : 1 ч. 41 м.
Вид битрейта : Постоянный
Битрейт : 384 Кбит/сек
Каналы : 6 каналов
Расположение каналов : Front: L C R, Side: L R, LFE
Частота : 48,0 КГц
Частота кадров : 31,250 кадров/сек (1536 spf)
Битовая глубина : 16 бит
Метод сжатия : С потерями
Размер потока : 279 Мбайт (5%)
Заголовок : MVO (OPT)
Язык : Russian
ServiceKind/String : Complete Main
Default : Да
Forced : Нет

Аудио #2
Идентификатор : 3
Формат : AC-3
Формат/Информация : Audio Coding 3
Параметр Endianness формата : Big
Идентификатор кодека : A_AC3
Продолжительность : 1 ч. 41 м.
Вид битрейта : Постоянный
Битрейт : 224 Кбит/сек
Каналы : 2 канала
Расположение каналов : Front: L R
Частота : 48,0 КГц
Частота кадров : 31,250 кадров/сек (1536 spf)
Битовая глубина : 16 бит
Метод сжатия : С потерями
Размер потока : 163 Мбайт (3%)
Заголовок : MVO (CTC)
Язык : Russian
ServiceKind/String : Complete Main
Default : Нет
Forced : Нет

Аудио #3
Идентификатор : 4
Формат : AC-3
Формат/Информация : Audio Coding 3
Параметр Endianness формата : Big
Идентификатор кодека : A_AC3
Продолжительность : 1 ч. 41 м.
Вид битрейта : Постоянный
Битрейт : 384 Кбит/сек
Каналы : 6 каналов
Расположение каналов : Front: L C R, Side: L R, LFE
Частота : 48,0 КГц
Частота кадров : 31,250 кадров/сек (1536 spf)
Битовая глубина : 16 бит
Метод сжатия : С потерями
Размер потока : 279 Мбайт (5%)
Заголовок : DVO (R5)
Язык : Russian
ServiceKind/String : Complete Main
Default : Нет
Forced : Нет

Аудио #4
Идентификатор : 5
Формат : AC-3
Формат/Информация : Audio Coding 3
Параметр Endianness формата : Big
Идентификатор кодека : A_AC3
Продолжительность : 1 ч. 41 м.
Вид битрейта : Постоянный
Битрейт : 192 Кбит/сек
Каналы : 2 канала
Расположение каналов : Front: L R
Частота : 48,0 КГц
Частота кадров : 31,250 кадров/сек (1536 spf)
Битовая глубина : 16 бит
Метод сжатия : С потерями
Размер потока : 139 Мбайт (2%)
Заголовок : AVO (Юрий Живов)
Язык : Russian
ServiceKind/String : Complete Main
Default : Нет
Forced : Нет

Аудио #5
Идентификатор : 6
Формат : AC-3
Формат/Информация : Audio Coding 3
Параметр Endianness формата : Big
Идентификатор кодека : A_AC3
Продолжительность : 1 ч. 41 м.
Вид битрейта : Постоянный
Битрейт : 192 Кбит/сек
Каналы : 2 канала
Расположение каналов : Front: L R
Частота : 48,0 КГц
Частота кадров : 31,250 кадров/сек (1536 spf)
Битовая глубина : 16 бит
Метод сжатия : С потерями
Размер потока : 139 Мбайт (2%)
Заголовок : original
Язык : English
ServiceKind/String : Complete Main
Default : Нет
Forced : Нет

Текст #1
Идентификатор : 7
Формат : UTF-8
Идентификатор кодека : S_TEXT/UTF8
Идентификатор кодека/Информация : UTF-8 Plain Text
Продолжительность : 1 ч. 37 м.
Битрейт : 125 бит/сек
ElementCount : 1430
Размер потока : 89,6 Кбайт (0%)
Заголовок : русские
Язык : Russian
Default : Нет
Forced : Нет

Текст #2
Идентификатор : 8
Формат : UTF-8
Идентификатор кодека : S_TEXT/UTF8
Идентификатор кодека/Информация : UTF-8 Plain Text
Продолжительность : 1 ч. 35 м.
Битрейт : 74 бит/сек
ElementCount : 1327
Размер потока : 52,3 Кбайт (0%)
Заголовок : английские
Язык : English
Default : Нет
Forced : Нет

Меню
00:00:00.000 : en:Chapter 01
00:00:22.856 : en:Chapter 02
00:15:47.821 : en:Chapter 03
00:30:33.832 : en:Chapter 04
00:45:27.933 : en:Chapter 05
01:04:21.899 : en:Chapter 06
01:37:58.497 : en:Chapter 07
pb.wtf



Скачать Домохозяйка через торрент http://hostpic.gq/img/2017-03/13/axh2rdgsrt6a3zag39fazbm9q.jpg Скачать фильм Домохозяйка через торрент бесплантно в хорошем качестве Описание: Талантливый архитектор Ньютон Дейвис строит дом своей мечты в родном городке и предлагает его вместе с рукой и сердцем любимой ... 10 10 5
Info! Золотая раздача, скачанное не засчитывается.
Торрент: Зарегистрирован [2017-03-13 11:14] · скачан: 51 раз
Статус: √ проверено
Размер: 5.65 GB
Как cкачать? Как скачать Домохозяйка через торрент | qTorrent

% Раздел Тема Автор DL S | L
Фильмы [HD 720p, 1080p] (Хороший звук DUB, MVO) [ 11.27 GB ] Домохозяйка / HouseSitter [1992 BDRip 1080p by msltel] 2 x MVO DVO AVO msltel Скачать
1 | 0

28-11-2019 20:33  

Отключить всю рекламу на сайте

    Дорогой пользователь! Огромная просьба, поблагодарите релизера, оцените раздачу и оставьте свои комментарий, если Вы скачали Домохозяйка через торрент бесплатно! Внесите свою лепту в развитие PiratBit!
    Комментировать посты могут только пользователи прошедшие не сложную регистрацию
    Показать сообщения:    

    Домохозяйка через торрент
    Скачать бесплатно Домохозяйка
    Домохозяйка скачать торрент
    Домохозяйка смотреть онлайн
    Cкачать фильм Домохозяйка бесплатно
    Домохозяйка скачать торрент в хорошем качестве
    Домохозяйка смотреть онлайн бесплатно в хорошем качестве


    Вы не можете начинать темы
    Вы не можете отвечать на сообщения
    Вы не можете редактировать свои сообщения
    Вы не можете удалять свои сообщения
    Вы не можете голосовать в опросах
    Вы не можете прикреплять файлы к сообщениям
    Вы можете скачивать файлы