MEGA SALE -50% FORZA HORIZON 4 ULTIMATE+ВСЕ DLC+ОНЛАЙН всего за 599р. 299 руб. (супер цена). Внимание количество ограничено!!!

iTunes

1+1

iTunes

мы

iTunes

1

iTunes

Чернобыль

iTunes

Ральф против интернета

Лицензия

ПШазам

Лицензия

Игра престолов

Лицензия

30
pack

ВАЖНО

!!Акция!!

Alien_RageХит недели

RePack

Resident Evil 21

ИГРА 18+

pack

RePack

Metro:Exodus

!!Акция!!

Alien_Rage

RePack

fifa19

RePack

Assassins Creed: Odyssey

RePack

NEED FOR SPEED™ PAYBACK

3 сезон

9 сезон

Бесстыжие 9 сезон

Все сериалы

все сериалы на PB.wtf

RePack

FAR CRY 5
Ребята, катастрофически не хватает 7730р. для оплаты серверов за АВГУСТ (всвязи с блокировками трафик упал в 3 раза), 1-2р., выручайте.
  

Снайпер / Sniper (Луис Ллоса ) [1992, боевик, триллер, драма, военный, BDRip-AVC от еnvy / NNNB] MVO pb.wtf

Снайпер через торрент pb.wtf

Раздают: 2 [ 0 KB/s ]
Размер: 3.5 GB | Добавлен: 2 года 6 мес. назад | Торрент скачан:34 раза
Скачать  

13-03-2017 14:58 Снайпер Скачать торрент  

Информация о фильме

Русское название: Снайпер
Оригинальное название: Sniper
Год выхода: 1992
Жанр: боевик, триллер, драма, военный
Режиссер: Луис Ллоса
Выпущено: США, Перу
Продолжительность: 01:39:01
Перевод: Профессиональный (многоголосый закадровый)
В ролях: Том Беренджер , Билли Зейн , Дж.Т. Уолш , Аден Янг , Кен Рэдли , Рейнальдо Аренас , Гэри Суонсон , Хэнк Гаррет , Фредерик Миральотта , Ванесса Стил , Карлос Алварез , Тайлер Коппин
Сюжет фильма

Два снайпера. Том Бекет и Ричард Миллер, получают смертельно опасное задание: в джунглях Центральной Америки найти базу колумбийских наркодельцов, проникнуть внутрь и ликвидировать главаря. Возможна только одна попытка, один выстрел.


Файл

Качество: BDRip-AVC (исходник Blu-Ray Disc Remux)
Формат: MKV
Видео: 1125x624, 4165 Кбит/сек, 23,976 кадр/сек, AVC, x264, High@L4.1, 1.85:1, 0.242 Бит/[Пиксели*Кадры]
Аудио 1: AC-3, 448 Кбит/сек, 6 канала(ов), 48,0 КГц - Профессиональный многоголосый, R5 / Русский
Аудио 2: AC-3, 448 Кбит/сек, 6 канала(ов), 48,0 КГц - Оригинал / Английский
Субтитры: Русские | Полные, Английские | Полные
Форсированные субтитры: Нет
Чаптеры (Главы): Есть
Примечание: В Русских субтитрах присутствует нецензурная лексика.






Автор Рипа: Группа:


Format : Matroska
Format version : Version 2
File size : 3.50 GiB
Duration : 1 h 39 min
Overall bit rate : 5 057 kb/s
Movie name : Sniper.(1992).BDRip.AVC.[envy]
Encoded date : UTC 2017-03-12 15:02:01
Writing application : mkvmerge v5.8.0 ('No Sleep / Pillow') built on Sep 2 2012 15:37:04
Writing library : libebml v1.2.3 + libmatroska v1.3.0

Video
ID : 1
Format : AVC
Format/Info : Advanced Video Codec
Format profile : High@L4.1
Format settings, CABAC : Yes
Format settings, ReFrames : 9 frames
Codec ID : V_MPEG4/ISO/AVC
Duration : 1 h 39 min
Bit rate : 4 165 kb/s
Width : 1 152 pixels
Height : 624 pixels
Display aspect ratio : 1.85:1
Frame rate mode : Constant
Frame rate : 23.976 (24000/1001) FPS
Color space : YUV
Chroma subsampling : 4:2:0
Bit depth : 8 bits
Scan type : Progressive
Bits/(Pixel*Frame) : 0.242
Stream size : 2.81 GiB (80%)
Title : Sniper.(1992).BDRip.AVC.[envy]
Writing library : x264 core 148 r2744 b97ae06
Encoding settings : cabac=1 / ref=9 / deblock=1:-3:-3 / analyse=0x3:0x133 / me=umh / subme=11 / psy=1 / psy_rd=1.00:0.09 / mixed_ref=1 / me_range=32 / chroma_me=1 / trellis=2 / 8x8dct=1 / cqm=0 / deadzone=21,11 / fast_pskip=0 / chroma_qp_offset=-3 / threads=12 / lookahead_threads=1 / sliced_threads=0 / nr=0 / decimate=1 / interlaced=0 / bluray_compat=0 / constrained_intra=0 / bframes=5 / b_pyramid=2 / b_adapt=2 / b_bias=0 / direct=3 / weightb=1 / open_gop=0 / weightp=2 / keyint=240 / keyint_min=23 / scenecut=40 / intra_refresh=0 / rc=2pass / mbtree=0 / bitrate=4165 / ratetol=2.0 / qcomp=0.60 / qpmin=0 / qpmax=69 / qpstep=4 / cplxblur=20.0 / qblur=0.5 / ip_ratio=1.40 / pb_ratio=1.30 / aq=1:0.65
Language : English
Default : Yes
Forced : No

Audio #1
ID : 2
Format : AC-3
Format/Info : Audio Coding 3
Mode extension : CM (complete main)
Format settings, Endianness : Big
Codec ID : A_AC3
Duration : 1 h 39 min
Bit rate mode : Constant
Bit rate : 448 kb/s
Channel(s) : 6 channels
Channel positions : Front: L C R, Side: L R, LFE
Sampling rate : 48.0 kHz
Frame rate : 31.250 FPS (1536 spf)
Bit depth : 16 bits
Compression mode : Lossy
Stream size : 317 MiB (9%)
Title : MVO, R5
Language : Russian
Default : Yes
Forced : No

Audio #2
ID : 3
Format : AC-3
Format/Info : Audio Coding 3
Mode extension : CM (complete main)
Format settings, Endianness : Big
Codec ID : A_AC3
Duration : 1 h 39 min
Bit rate mode : Constant
Bit rate : 448 kb/s
Channel(s) : 6 channels
Channel positions : Front: L C R, Side: L R, LFE
Sampling rate : 48.0 kHz
Frame rate : 31.250 FPS (1536 spf)
Bit depth : 16 bits
Compression mode : Lossy
Stream size : 317 MiB (9%)
Title : Eng
Language : English
Default : No
Forced : No

Text #1
ID : 4
Format : UTF-8
Codec ID : S_TEXT/UTF8
Codec ID/Info : UTF-8 Plain Text
Title : Rus full
Language : Russian
Default : No
Forced : No

Text #2
ID : 5
Format : UTF-8
Codec ID : S_TEXT/UTF8
Codec ID/Info : UTF-8 Plain Text
Title : Eng full
Language : English
Default : No
Forced : No

Menu
00:00:00.000 : :00:00:00.000
00:07:04.423 : :00:07:04.423
00:16:05.965 : :00:16:05.965
00:25:32.528 : :00:25:32.528
00:32:29.948 : :00:32:29.948
00:41:24.481 : :00:41:24.481
00:48:44.922 : :00:48:44.922
00:56:52.409 : :00:56:52.409
01:04:20.856 : :01:04:20.856
01:15:30.524 : :01:15:30.524
01:22:50.966 : :01:22:50.966
01:29:28.363 : :01:29:28.363

pb.wtf



Скачать Снайпер через торрент http://img11.lostpic.net/2017/03/13/1e3fc9a1b73559c37546118e862fb346.png Скачать фильм Снайпер через торрент бесплантно в хорошем качестве В ролях: Том Беренджер , Билли Зейн , Дж.Т. Уолш , Аден Янг , Кен Рэдли , Рейнальдо Аренас , Гэри Суонсон , Хэнк Гаррет , Фредерик ... 10 10 5
Info! Золотая раздача, скачанное не засчитывается.
Торрент: Зарегистрирован [2017-03-13 14:58] · скачан: 34 раз
Статус: √ проверено
Размер: 3.5 GB
Как cкачать? Как скачать Снайпер через торрент | qTorrent

% Раздел Тема Автор DL S | L
Фильмы (Blu-ray, BD-Remux, HDDVD) [ 20.12 GB ] Снайпер / Sniper [1992 военный BDRemux 1080p] [GER Transfer] MVO + DVO + 7xAVO - KORSAR kisa1980 Скачать
1 | 0
Ultra HD (UHD: 2K, 4K, 8K) — видео сверхвысокой чёткости [ 25.52 GB ] Снайпер / American Sniper [2014 военный биография UHD WEBRip 2160p] DUB + MVO + AVO sheker187 Скачать
2 | 0
Фильмы 2017 [DVDrip, WEB-DLRip, HDrip] (DUB, MVO) [ 746 MB ] Снайпер: Идеальное убийство / Sniper: Ultimate Kill [2017 BDRip-AVC] MVO [] sokol_ok Скачать
2 | 0
Фильмы 2017 [DVDrip, WEB-DLRip, HDrip] (DUB, MVO) [ 2.91 GB ] Снайпер: Идеальное убийство / Sniper: Ultimate Kill [2017 BDRip-AVC] MVO [] sokol_ok Скачать
1 | 0
Фильмы 2017 [DVDrip, WEB-DLRip, HDrip] (DUB, MVO) [ 1.47 GB ] Снайпер: Идеальное убийство / Sniper: Ultimate Kill [2017 BDRip-AVC] MVO [] sokol_ok Скачать
2 | 0
Фильмы [HD 720p, 1080p] (Хороший звук DUB, MVO) [ 11.57 GB ] Снайпер: Идеальное убийство / Sniper: Ultimate Kill [2017 BDRip 1080p] MVO [ Blu-ray EUR] bober100 Скачать
1 | 0
Фильмы 2017 [DVDrip, WEB-DLRip, HDrip] (DUB, MVO) [ 2.42 GB ] Снайпер: Идеальное убийство / Sniper: Ultimate Kill [2017 BDRip-AVC] MVO [ Blu-ray EUR] bober100 Скачать
1 | 0


>> Регистрируемся здесь <<






Отзывы и комментарии о схеме читаем и пишем здесь: ---> Отзывы и комментарии о схеме

Новые благодарочки в телеграм довольных пользователей:
скриншот   скриншот   скриншот   скриншот   скриншот
    Дорогой пользователь! Огромная просьба, поблагодарите релизера, оцените раздачу и оставьте свои комментарий, если Вы скачали Снайпер через торрент бесплатно! Внесите свою лепту в развитие PiratBit!
    Комментировать посты могут только пользователи прошедшие не сложную регистрацию
    Показать сообщения:    

    Снайпер через торрент
    Скачать бесплатно Снайпер
    Снайпер скачать торрент
    Снайпер смотреть онлайн
    Cкачать фильм Снайпер бесплатно
    Снайпер скачать торрент в хорошем качестве
    Снайпер смотреть онлайн бесплатно в хорошем качестве


    Вы не можете начинать темы
    Вы не можете отвечать на сообщения
    Вы не можете редактировать свои сообщения
    Вы не можете удалять свои сообщения
    Вы не можете голосовать в опросах
    Вы не можете прикреплять файлы к сообщениям
    Вы можете скачивать файлы