Мега распродажа FORZA HORIZON 4 ULTIMATE+ВСЕ DLC+ОНЛАЙН всего за 499р. 349 руб. (супер цена). Внимание количество ограничено!!!

iTunes

1+1

iTunes

мы

iTunes

1

1 сезон

Чернобыль

1 сезон

Ральф против интернета

Лицензия

ПШазам

8 сезон

Игра престолов

Лицензия

30
pack

ВАЖНО

!!Акция!!

Alien_RageХит недели

RePack

Resident Evil 21

ИГРА 18+

pack

RePack

Metro:Exodus

!!Акция!!

Alien_Rage

RePack

fifa19

RePack

Assassins Creed: Odyssey

RePack

NEED FOR SPEED™ PAYBACK

3 сезон

9 сезон

Бесстыжие 9 сезон

Все сериалы

все сериалы на PB.wtf

RePack

FAR CRY 5
Ребята, катастрофически не хватает 2730р. для оплаты серверов за ИЮНЬ (всвязи с блокировками трафик упал в 3 раза), 1-2р., выручайте.
  

Они / Them! (Гордон Дуглас) [1954, ужасы, фантастика, HDRip-AVC] DVO от ExKinoRay pb.wtf

Они через торрент pb.wtf

Размер: 2.01 GB | Добавлен: 2 года 4 мес. назад | Торрент скачан:12 раз
Скачать  

13-03-2017 18:42 Они Скачать торрент  

«The Amazing New Warner Bros. Sensation!» Информация о фильме
Название: Они
Оригинальное название: Them!
Год выпуска: 1954
Страна: США, Warner Bros. Pictures
Жанр: Ужасы, фантастика
Продолжительность: 01:32:33
Перевод: Профессиональный (двухголосый)
Субтитры: Русские, английские
Режиссер: Гордон Дуглас
В ролях: Джеймс Уитмор, Эдмунд Гвенн, Джоан Уэлдон, Джеймс Арнесс, Онслоу Стивенс, Шон МакКлори, Крис Дрэйк, Сэнди Десчер, Мэри Алан Хокансон, Дон Шелтон
Описание: В небольшом городке Нью-Мексико совершается несколько странных и зверских убийств. Ведут расследование полицейский Бен Петерсон и опытный агент ФБР Роберт Грэхем.
Сыщиков не покидает ощущение мрачной и страшной загадки: в этом деле слишком много странностей — проломленные стены, оставленные при трупах деньги, необычно убитые люди, необычные следы и странные звуки в районе преступления.
Все это приводит в Нью-Мексико совершенно неожиданных людей — доктора наук Медфорда и его очаровательную дочь Пэт. Именно они раскрывают тайну загадочных убийств — за ними стоят вовсе не люди, а огромные мутировавшие муравьи…
Эти пугающие твари опасны не только для жителей маленького городка, в случае их успешного размножения они будут представлять опасность для всего человечества.


rating

Файл
Качество: HDRip (AVC)(исх.Them.(1954).BDRip.1080p.[envy])
Видео: MPEG-4 AVC, 1024x576 (16:9), 23.976 fps, ~2720 kbps avg, 0.192 bit/pixel
Звук:
Аудио 1: Русский, 48.0 KHz, AC3, 2 ch, 192 Kbps
Аудио 2: Английский, 48.0 KHz, AC3, 1 ch, 192 Kbps
General
Unique ID : 240071298311720058354839888212935537168 (0xB49C0CDB42A13C8EA0A45CEA47977210)
Complete name : D:\Them.1954.HDRip.AVC.ExKinoRay.mkv
Format : Matroska
Format version : Version 2
File size : 2.01 GiB
Duration : 1 h 32 min
Overall bit rate : 3 106 kb/s
Movie name : Them 1954 from ExKinoRay
Encoded date : UTC 2017-03-12 21:44:14
Writing application : mkvmerge v5.8.0 ('No Sleep / Pillow') built on Sep 2 2012 15:37:04
Writing library : libebml v1.2.3 + libmatroska v1.3.0

Video
ID : 1
Format : AVC
Format/Info : Advanced Video Codec
Format profile : High@L4.1
Format settings, CABAC : Yes
Format settings, ReFrames : 12 frames
Codec ID : V_MPEG4/ISO/AVC
Duration : 1 h 32 min
Bit rate : 2 720 kb/s
Width : 1 024 pixels
Height : 576 pixels
Display aspect ratio : 16:9
Frame rate mode : Constant
Frame rate : 23.976 (24000/1001) FPS
Color space : YUV
Chroma subsampling : 4:2:0
Bit depth : 8 bits
Scan type : Progressive
Bits/(Pixel*Frame) : 0.192
Stream size : 1.72 GiB (86%)
Title : Enigma
Writing library : x264 core 144 r2525 40bb568
Encoding settings : cabac=1 / ref=12 / deblock=1:-3:-3 / analyse=0x3:0x113 / me=umh / subme=10 / psy=1 / psy_rd=1.00:0.00 / mixed_ref=1 / me_range=32 / chroma_me=1 / trellis=2 / 8x8dct=1 / cqm=0 / deadzone=21,11 / fast_pskip=1 / chroma_qp_offset=-2 / threads=12 / lookahead_threads=3 / sliced_threads=0 / nr=0 / decimate=1 / interlaced=0 / bluray_compat=0 / constrained_intra=0 / bframes=10 / b_pyramid=2 / b_adapt=2 / b_bias=0 / direct=3 / weightb=1 / open_gop=0 / weightp=2 / keyint=240 / keyint_min=23 / scenecut=40 / intra_refresh=0 / rc_lookahead=40 / rc=2pass / mbtree=0 / bitrate=2720 / ratetol=1.0 / qcomp=0.60 / qpmin=0 / qpmax=51 / qpstep=4 / cplxblur=20.0 / qblur=0.5 / vbv_maxrate=50000 / vbv_bufsize=62500 / nal_hrd=none / filler=0 / ip_ratio=1.40 / pb_ratio=1.30 / aq=1:1.00
Language : English
Default : Yes
Forced : No
Color range : Limited
Color primaries : BT.709
Transfer characteristics : BT.709
Matrix coefficients : BT.709

Audio #1
ID : 2
Format : AC-3
Format/Info : Audio Coding 3
Mode extension : CM (complete main)
Format settings, Endianness : Big
Codec ID : A_AC3
Duration : 1 h 32 min
Bit rate mode : Constant
Bit rate : 192 kb/s
Channel(s) : 2 channels
Channel positions : Front: L R
Sampling rate : 48.0 kHz
Frame rate : 31.250 FPS (1536 spf)
Bit depth : 16 bits
Compression mode : Lossy
Stream size : 127 MiB (6%)
Title : DVO
Language : Russian
Default : No
Forced : No

Audio #2
ID : 3
Format : AC-3
Format/Info : Audio Coding 3
Mode extension : CM (complete main)
Format settings, Endianness : Big
Codec ID : A_AC3
Duration : 1 h 32 min
Bit rate mode : Constant
Bit rate : 192 kb/s
Channel(s) : 1 channel
Channel positions : Front: C
Sampling rate : 48.0 kHz
Frame rate : 31.250 FPS (1536 spf)
Bit depth : 16 bits
Compression mode : Lossy
Stream size : 127 MiB (6%)
Title : Eng
Language : English
Default : No
Forced : No

Text #1
ID : 4
Format : UTF-8
Codec ID : S_TEXT/UTF8
Codec ID/Info : UTF-8 Plain Text
Title : Full
Language : Russian
Default : No
Forced : No

Text #2
ID : 5
Format : UTF-8
Codec ID : S_TEXT/UTF8
Codec ID/Info : UTF-8 Plain Text
Language : English
Default : No
Forced : No

Menu
00:00:00.000 : en:00:00:00.000
00:01:22.082 : en:00:01:22.082
00:04:11.918 : en:00:04:11.918
00:08:36.015 : en:00:08:36.015
00:10:18.868 : en:00:10:18.868
00:13:44.365 : en:00:13:44.365
00:16:48.174 : en:00:16:48.174
00:19:01.349 : en:00:19:01.349
00:22:52.371 : en:00:22:52.371
00:24:29.134 : en:00:24:29.134
00:27:29.273 : en:00:27:29.273
00:31:19.586 : en:00:31:19.586
00:34:56.428 : en:00:34:56.428
00:37:45.597 : en:00:37:45.597
00:42:17.702 : en:00:42:17.702
00:46:13.813 : en:00:46:13.813
00:48:04.507 : en:00:48:04.507
00:53:35.838 : en:00:53:35.838
00:58:30.632 : en:00:58:30.632
01:01:38.403 : en:01:01:38.403
01:04:26.988 : en:01:04:26.988
01:06:40.788 : en:01:06:40.788
01:08:25.601 : en:01:08:25.601
01:10:36.441 : en:01:10:36.441
01:13:44.253 : en:01:13:44.253
01:16:50.147 : en:01:16:50.147
01:21:17.998 : en:01:21:17.998
01:25:48.894 : en:01:25:48.894
01:27:54.978 : en:01:27:54.978
01:30:44.939 : en:01:30:44.939
Релиз от:

Автор релиза: pb.wtf



Скачать Они через торрент http://s019.radikal.ru/i611/1703/23/ffcb04025780.jpg Скачать фильм Они через торрент бесплантно в хорошем качестве Описание: В небольшом городке Нью-Мексико совершается несколько странных и зверских убийств. Ведут расследование полицейский Бен Петерсон ... 8.2 10 5
Info! Золотая раздача, скачанное не засчитывается.
Торрент: Зарегистрирован [2017-03-13 18:42] · скачан: 12 раз
Статус: √ проверено
Размер: 2.01 GB
Как cкачать? Как скачать Они через торрент | qTorrent

% Раздел Тема Автор DL S | L
Фильмы 2016 [DVDrip, WEB-DLRip, HDrip] (DUB, MVO) [ 2.41 GB ] Фантастические твари и где они обитают / Fantastic Beasts and Where to Find Them [2016 BDRip-AVC] от ExKinoRay Enigma2010 Скачать
1 | 0


>> Регистрируемся здесь <<






Отзывы и комментарии о схеме читаем и пишем здесь: ---> Отзывы и комментарии о схеме

Новые благодарочки в телеграм довольных пользователей:
скриншот   скриншот   скриншот   скриншот   скриншот
    Дорогой пользователь! Огромная просьба, поблагодарите релизера, оцените раздачу и оставьте свои комментарий, если Вы скачали Они через торрент бесплатно! Внесите свою лепту в развитие PiratBit!
    Комментировать посты могут только пользователи прошедшие не сложную регистрацию
    Показать сообщения:    

    Они через торрент
    Скачать бесплатно Они
    Они скачать торрент
    Они смотреть онлайн
    Cкачать фильм Они бесплатно
    Они скачать торрент в хорошем качестве
    Они смотреть онлайн бесплатно в хорошем качестве


    Вы не можете начинать темы
    Вы не можете отвечать на сообщения
    Вы не можете редактировать свои сообщения
    Вы не можете удалять свои сообщения
    Вы не можете голосовать в опросах
    Вы не можете прикреплять файлы к сообщениям
    Вы можете скачивать файлы