Ссылка на приватное зеркало нашего сайта всего за 1$. Внимание количество ограничено!!!

2 сезон

iTunes

1 сезон

1

2 сезон

2 сезон

iTunes

1 сезон

RePack

30

Новинка

ВАЖНО

ИГРА 18+

pack

RePack

MK11
pack

Забери бонус

RePack

jed

!!Акция!!

Alien_Rage

RePack

fifa19

RePack

Assassins Creed: Odyssey

RePack

NEED FOR SPEED™ PAYBACK

4 сезон

9 сезон

Бесстыжие 9 сезон

Все сериалы

все сериалы на PB.wtf

RePack

FAR CRY 5
  

24 часа: Наследие / 24: Legacy / Сезон: 1 / Серии 1-12 из 12 (Джон Кассар / Jon Cassar, Стивен Хопкинс / Stephen Hopkins, Бронуэн Хьюз / Bronwen Hughes) [2016 , США, боевик, триллер, драма, WEB-DLRip-AVC] MVO [BaibaKo] pb.wtf

24 часа: Наследие через торрент pb.wtf

Размер: 10.04 GB | Добавлен: 3 года 7 мес. назад | Торрент скачан:21 раз
Скачать  

14-03-2017 01:27 24 часа: Наследие Скачать торрент  


24 часа: Наследие / 24: Legacy

«Новый день. Новый герой»


  • Год выпуска: 2016
  • Страна: США
  • Жанр: боевик, триллер, драма, криминал, детектив
  • Продолжительность: 00:43:22 (Серия)
  • Перевод: Профессиональный многоголосый [BaibaKo]
  • Режиссер: Джон Кассар / Jon Cassar, Стивен Хопкинс / Stephen Hopkins, Бронуэн Хьюз / Bronwen Hughes
  • В ролях:

    Кори Хоукинс (Eric Carter), Миранда Отто (Rebecca Ingram), Чарли Хофхаймер (Ben Grimes), Анна Диоп (Nicole Carter), Тедди Сирс (Keith Mullins), Эшли Томас (Isaac Carter), Дэн Букатинский (Andy Shalowitz), Корал Пенья (Mariana Stiles), Шейла Ванд (Nilaa Mizrani), Джимми Смитс (John Donovan), Рафаэль Аклок (Jadalla Bin-Khalid), Тамми Мари Вон (CTU Staff)


  • Эрик Картер, герой войны, только что вернувшийся из очередной командировки в Ирак, где выполнял опасное задание, но дома попавший в переделку похлеще, чем у него случались на Ближнем Востоке. Картер повидал на войне немало ужасов, убивал людей и чудом спасался из столкновений с врагами. Теперь он дома, но мыслями до сих пор там – в бою. Однако теперь это уже не мысли из прошлого – ближайшие 24 часа станут самым опасным приключением для героя. Террористы планируют новую атаку на США, но для начала хотят наказать всех принимавших участие в ликвидации их лидера. Друзья Картера гибнут один за другим, скоро очередь дойдёт и до него. Чтобы выжить герою нужно объединиться со своим бывшим боссом Ребеккой Ингрэм, которая уже занимается совсем другими делами и даже, возможно, скоро станет новой Первой леди страны, но ради такого задания будет вынуждена оставить новую жизнь и вернуться к прошлой. 24 часа и героизм Картера вместе с мозгами Ингрэм решат, будет ли совершена новая террористическая атака.
  • Рейтинг:



  • Качество: WEB-DLRip-AVC
  • Формат: :MPEG-4
  • Видео кодек: AVC
  • Аудио кодек: AC3
  • Видео: 1024x576 (16:9), 2000 kbps, 24 fps, 0,141 bpp
  • Аудио №1: русский / 5.1 / 48 kHz / 384 kbps / 16 bit |[BaibaKo]|
  • Аудио №2: английский / 5.1 / 48 kHz / 384 kbps / 16 bit
  • Релиз от: GEKADOL

    Внимание! Раздача ведётся путём добавления новых серий; при каждом добавлении создаётся новый торрент. Чтобы начать докачку новой серии, пользователям необходимо сделать следующее:
    (1) остановить скачивание,
    (2) удалить старый торрент у себя из клиента (старые серии удалять не надо),
    (3) скачать новый торрент и запустить его у себя в клиенте вместо старого, при этом указать клиенту путь в старую папку куда и должно происходить скачивание новых серий.
    Ваш клиент при этом должен произвести хеширование (проверку) старой папки (если не производит сам - помогите ему сделать это), и будет докачивать только те серии которых у вас ещё нет. Старые серии при этом не удаляются, а продолжают раздаваться!
    Eсли вы уже удалили старые серии, то предотвратить повторную закачку старых серий можно, отжав галочку в соответствующих местах при запуске нового торрента. По возможности, желательно не удалять старые серии как можно дольше чтобы релизёр не столько продолжал раздавать старые серии, а смог сконцентрироваться на новых.

    General
    Complete name : H:\24 часа. Наследие (24. Legacy)\24.Legacy.s01e01.WEB-DLRip-AVC.Rus.Eng.BaibaKo.tv.mp4
    Format : MPEG-4
    Format profile : Base Media
    Codec ID : isom (isom/iso2/avc1/mp41)
    File size : 858 MiB
    Duration : 43 min
    Overall bit rate : 2 766 kb/s
    Writing application : XviD4PSP 7.0.366 DAILY
    HDVideo : Yes
    encoding_info : MATROSKA / WEBM > MP4 Произвольный / H264 > X264 CBR 2000kbps HQ / AC3 > AC3 CBR 384kbps / AC3 > AC3 CBR 384kbps

    Video
    ID : 1
    Format : AVC
    Format/Info : Advanced Video Codec
    Format profile : High@L4.1
    Format settings, CABAC : Yes
    Format settings, ReFrames : 4 frames
    Codec ID : avc1
    Codec ID/Info : Advanced Video Coding
    Duration : 43 min
    Bit rate : 2 000 kb/s
    Width : 1 024 pixels
    Height : 576 pixels
    Display aspect ratio : 16:9
    Frame rate mode : Constant
    Frame rate : 24.000 FPS
    Color space : YUV
    Chroma subsampling : 4:2:0
    Bit depth : 8 bits
    Scan type : Progressive
    Bits/(Pixel*Frame) : 0.141
    Stream size : 618 MiB (72%)
    Writing library : x264 core 148 r2762M 90a61ec
    Encoding settings : cabac=1 / ref=3 / deblock=1:-1:-1 / analyse=0x3:0x133 / me=hex / subme=7 / psy=1 / psy_rd=1.00:0.20 / mixed_ref=1 / me_range=16 / chroma_me=1 / trellis=1 / 8x8dct=1 / cqm=0 / deadzone=21,11 / fast_pskip=1 / chroma_qp_offset=-3 / threads=5 / lookahead_threads=1 / sliced_threads=0 / nr=0 / decimate=1 / interlaced=0 / bluray_compat=0 / constrained_intra=0 / bframes=3 / b_pyramid=2 / b_adapt=2 / b_bias=0 / direct=3 / weightb=1 / open_gop=0 / weightp=2 / keyint=240 / keyint_min=24 / scenecut=40 / intra_refresh=0 / rc_lookahead=40 / rc=cbr / mbtree=1 / bitrate=2000 / ratetol=1.0 / qcomp=0.60 / qpmin=0 / qpmax=69 / qpstep=4 / vbv_maxrate=2000 / vbv_bufsize=30000 / nal_hrd=none / filler=0 / ip_ratio=1.40 / aq=1:1.00

    Audio #1
    ID : 2
    Format : AC-3
    Format/Info : Audio Coding 3
    Mode extension : CM (complete main)
    Format settings, Endianness : Big
    Codec ID : ac-3
    Duration : 43 min
    Bit rate mode : Constant
    Bit rate : 384 kb/s
    Channel(s) : 6 channels
    Channel positions : Front: L C R, Side: L R, LFE
    Sampling rate : 48.0 kHz
    Frame rate : 31.250 FPS (1536 spf)
    Bit depth : 16 bits
    Compression mode : Lossy
    Stream size : 119 MiB (14%)
    Language : Russian
    Default : Yes
    Alternate group : 1

    Audio #2
    ID : 3
    Format : AC-3
    Format/Info : Audio Coding 3
    Mode extension : CM (complete main)
    Format settings, Endianness : Big
    Codec ID : ac-3
    Duration : 43 min
    Bit rate mode : Constant
    Bit rate : 384 kb/s
    Channel(s) : 6 channels
    Channel positions : Front: L C R, Side: L R, LFE
    Sampling rate : 48.0 kHz
    Frame rate : 31.250 FPS (1536 spf)
    Bit depth : 16 bits
    Compression mode : Lossy
    Stream size : 119 MiB (14%)
    Language : English
    Default : No
    Alternate group : 1



    Скриншоты:
    скриншот   скриншот   скриншот   скриншот   скриншот   скриншот   скриншот  
    скриншот  

    Раздача ведётся путём добавления новых серий. Добавлена 12 серия (19.04.2017).Просьба перекачать торрент файл.

    pb.wtf



  • Скачать 24 часа: Наследие через торрент http://pic1.kartinco.top/images/11/216t8.jpg Скачать фильм 24 часа: Наследие через торрент бесплантно в хорошем качестве qw.png Эрик Картер, герой войны, только что вернувшийся из очередной командировки в Ирак, где выполнял опасное задание, но дома попавший ... 10 10 4
    Info! Золотая раздача, скачанное не засчитывается.
    Торрент: Зарегистрирован [2017-04-19 01:03] · скачан: 21 раз
    Статус: √ проверено
    Размер: 10.04 GB
    Как cкачать? Как скачать 24 часа: Наследие через торрент | qTorrent

    % Раздел Тема Автор DL S | L
    Зарубежные сериалы [ 5.91 GB ] 24 часа: Наследие / 24: Legacy / Сезон 1 / Серии 1-12 из 12 [2017 WEB-DLRip] MVO [FOX] bober100 Скачать
    1 | 0
    Зарубежные сериалы [ 18.18 GB ] 24 часа: Наследие / 24: Legacy / Сезон: 1 / Серии 1-12 из 12 [2017 WEB-DL 720p] [MVO] killermax2013 Скачать
    1 | 0
    Зарубежные сериалы [ 6.45 GB ] 24 часа: Наследие / 24: Legacy / Сезон: 1 / Серии 1-12 из 12 [2017 WEB-DLRip] [MVO] killermax2013 Скачать
    1 | 0
    Зарубежные сериалы [ 3.61 GB ] 24 часа: Наследие / 24: Legacy / Сезон: 1 / Серии 1-2 из 12 [2017 WEB-DL 1080p] [MVO] killermax2013 Скачать
    1 | 0

    28-11-2019 20:33  

    Отключить всю рекламу на сайте

      Дорогой пользователь! Огромная просьба, поблагодарите релизера, оцените раздачу и оставьте свои комментарий, если Вы скачали 24 часа: Наследие через торрент бесплатно! Внесите свою лепту в развитие PiratBit!
      Комментировать посты могут только пользователи прошедшие не сложную регистрацию
      Показать сообщения:    

      24 часа: Наследие через торрент
      Скачать бесплатно 24 часа: Наследие
      24 часа: Наследие скачать торрент
      24 часа: Наследие смотреть онлайн
      Cкачать фильм 24 часа: Наследие бесплатно
      24 часа: Наследие скачать торрент в хорошем качестве
      24 часа: Наследие смотреть онлайн бесплатно в хорошем качестве


      Вы не можете начинать темы
      Вы не можете отвечать на сообщения
      Вы не можете редактировать свои сообщения
      Вы не можете удалять свои сообщения
      Вы не можете голосовать в опросах
      Вы не можете прикреплять файлы к сообщениям
      Вы можете скачивать файлы