2 сезон

iTunes

1 сезон

1

iTunes

iTunes

iTunes

1 сезон

RePack

30

ИГРА 18+

pack

ВАЖНО

!!Акция!!

Alien_RageХит недели

RePack

MK11
pack

Забери бонус

RePack

jed

!!Акция!!

Alien_Rage

RePack

fifa19

RePack

Assassins Creed: Odyssey

RePack

NEED FOR SPEED™ PAYBACK

4 сезон

9 сезон

Бесстыжие 9 сезон

Все сериалы

все сериалы на PB.wtf

RePack

FAR CRY 5
  

Кредо убийцы / Assassin's Creed (Джастин Курзель) [2016, фантастика, фэнтези, боевик, приключения, BDRip 720p] DUB [Лицензия BD CEE] pb.wtf

Кредо убийцы через торрент pb.wtf

Размер: 5.5 GB | Добавлен: 3 года 7 мес. назад | Торрент скачан:516 раз
Скачать  

14-03-2017 10:32 Кредо убийцы Скачать торрент  

Кредо убийцы / Assassin's Creed
Год выпуска: 2016
Страна: Великобритания, Франция, Гонконг, США, Тайвань, Мальта, Канада
Жанр: фантастика, фэнтези, боевик, приключения
Продолжительность: 01:55:31
Перевод: Дубляж - [Лицензия BD CEE]
Субтитры: русские, английскиe

Режиссер: Джастин Курзель

rating

В ролях:

Майкл Фассбендер, Марион Котийяр, Джереми Айронс, Брендан Глисон, Шарлотта Рэмплинг, Майкл Кеннет Уильямс, Дени Меноше, Ариана Лабед, Халид Абдалла, Эсси Дэвис

Описание:

Благодаря революционным технологиям, позволяющим вызвать в памяти воспоминания прежних поколений, Каллум Линч проживает приключения своего предка Агилара в Испании 15-го века. Каллум узнает, что является потомком членов загадочного тайного общества ассасинов. Накопив невероятные знания и навыки, он вступает в противостояние с могущественной и жестокой организацией тамплиеров в наши дни.

Качество: BDRip 720p
Формат: MKV
Видео кодек: H.264
Аудио кодек: AC3

Видео: 1280x536p (2.40:1), 23.976 fps, AVC MPEG-4 (x264), High@L4.1, ~ 4860 kbps avg, 0.295 bit/pixel
Аудио#1: Русский: 48 kHz, AC3, 3/2 (L,C,R,l,r) + LFE ch, ~448.00 kbps avg [Дубляж - [Лицензия BD CEE]
Аудио#2: Английский: 48 kHz, DTS, 3/2 (L,C,R,l,r) + LFE ch, ~1509.00 kbps avg [Оригинал]
Общее
Уникальный идентификатор : 199519831828937895935165358678662149579 (0x961A1F325681EAB091C0A2A1AECB75CB)
Полное имя : Assassin's.Creed.2016.BDRip.720p.mkv
Формат : Matroska
Версия формата : Version 4 / Version 2
Размер файла : 5,50 Гбайт
Продолжительность : 1 ч. 55 м.
Общий поток : 6820 Кбит/сек
Дата кодирования : UTC 2017-03-14 09:55:48
Программа кодирования : mkvmerge v9.9.0 ('Pick Up') 64bit
Библиотека кодирования : libebml v1.3.4 + libmatroska v1.4.5

Видео
Идентификатор : 1
Формат : AVC
Формат/Информация : Advanced Video Codec
Профиль формата : High@L4.1
Параметр CABAC формата : Да
Параметр ReFrames формата : 9 кадров
Идентификатор кодека : V_MPEG4/ISO/AVC
Продолжительность : 1 ч. 55 м.
Битрейт : 4860 Кбит/сек
Ширина : 1280 пикселей
Высота : 536 пикселей
Соотношение сторон : 2,40:1
Режим частоты кадров : Постоянный
Частота кадров : 23,976 (24000/1001) кадра/сек
Цветовое пространство : YUV
Субдискретизация насыщенности : 4:2:0
Битовая глубина : 8 бит
Тип развёртки : Прогрессивная
Бит/(Пиксели*Кадры) : 0.295
Размер потока : 3,92 Гбайт (71%)
Библиотека кодирования : x264 core 149 r2771+45 509cceb 7mod [8-bit@all X86_64]
Настройки программы : cabac=1 / ref=9 / deblock=1:-3:-3 / analyse=0x3:0x113 / me=umh / subme=11 / psy=1 / fade_compensate=0.00 / psy_rd=1.00:0.05 / mixed_ref=1 / me_range=32 / chroma_me=1 / trellis=2 / 8x8dct=1 / cqm=0 / deadzone=21,11 / fast_pskip=0 / chroma_qp_offset=-2 / threads=12 / lookahead_threads=2 / sliced_threads=0 / nr=0 / decimate=1 / interlaced=0 / bluray_compat=0 / constrained_intra=0 / fgo=0 / bframes=8 / b_pyramid=2 / b_adapt=2 / b_bias=0 / direct=3 / weightb=1 / open_gop=0 / weightp=2 / keyint=250 / keyint_min=23 / scenecut=40 / intra_refresh=0 / rc_lookahead=40 / rc=crf / mbtree=0 / crf=16.5000 / qcomp=0.60 / qpmin=0:0:0 / qpmax=69:69:69 / qpstep=4 / vbv_maxrate=30000 / vbv_bufsize=30000 / crf_max=0.0 / nal_hrd=none / filler=0 / ip_ratio=1.40 / pb_ratio=1.30 / aq=3:1.00 / aq-sensitivity=10.00 / aq-factor=1.00:1.00:1.00 / aq2=0 / aq3=0
Язык : English
Default : Да
Forced : Нет
Цветовой диапазон : Limited
Коэффициенты матрицы : BT.709

Аудио #1
Идентификатор : 2
Формат : AC-3
Формат/Информация : Audio Coding 3
Расширение режима : CM (complete main)
Параметр Endianness формата : Big
Идентификатор кодека : A_AC3
Продолжительность : 1 ч. 55 м.
Вид битрейта : Постоянный
Битрейт : 448 Кбит/сек
Каналы : 6 каналов
Расположение каналов : Front: L C R, Side: L R, LFE
Частота : 48,0 КГц
Частота кадров : 31,250 кадров/сек (1536 spf)
Метод сжатия : С потерями
Размер потока : 370 Мбайт (7%)
Заголовок : BD CEE
Язык : Russian
Default : Да
Forced : Нет

Аудио #2
Идентификатор : 3
Формат : DTS
Формат/Информация : Digital Theater Systems
Режим : 16
Параметр Endianness формата : Big
Идентификатор кодека : A_DTS
Продолжительность : 1 ч. 55 м.
Вид битрейта : Постоянный
Битрейт : 1509 Кбит/сек
Каналы : 6 каналов
Расположение каналов : Front: L C R, Side: L R, LFE
Частота : 48,0 КГц
Частота кадров : 93,750 кадра/сек (512 spf)
Битовая глубина : 24 бит
Метод сжатия : С потерями
Размер потока : 1,22 Гбайт (22%)
Язык : English
Default : Нет
Forced : Нет

Текст #1
Идентификатор : 4
Формат : UTF-8
Идентификатор кодека : S_TEXT/UTF8
Идентификатор кодека/Информация : UTF-8 Plain Text
Продолжительность : 1 ч. 31 м.
Битрейт : 8 бит/сек
Count of elements : 124
Размер потока : 5,91 Кбайт (0%)
Заголовок : Forced
Язык : Russian
Default : Да
Forced : Нет

Текст #2
Идентификатор : 5
Формат : UTF-8
Идентификатор кодека : S_TEXT/UTF8
Идентификатор кодека/Информация : UTF-8 Plain Text
Продолжительность : 1 ч. 38 м.
Битрейт : 43 бит/сек
Count of elements : 679
Размер потока : 31,3 Кбайт (0%)
Язык : Russian
Default : Нет
Forced : Нет

Текст #3
Идентификатор : 6
Формат : UTF-8
Идентификатор кодека : S_TEXT/UTF8
Идентификатор кодека/Информация : UTF-8 Plain Text
Продолжительность : 1 ч. 18 м.
Битрейт : 4 бит/сек
Count of elements : 99
Размер потока : 2,76 Кбайт (0%)
Заголовок : Forced
Язык : English
Default : Нет
Forced : Нет

Текст #4
Идентификатор : 7
Формат : UTF-8
Идентификатор кодека : S_TEXT/UTF8
Идентификатор кодека/Информация : UTF-8 Plain Text
Продолжительность : 1 ч. 42 м.
Битрейт : 26 бит/сек
Count of elements : 729
Размер потока : 19,5 Кбайт (0%)
Язык : English
Default : Нет
Forced : Нет

Текст #5
Идентификатор : 8
Формат : UTF-8
Идентификатор кодека : S_TEXT/UTF8
Идентификатор кодека/Информация : UTF-8 Plain Text
Продолжительность : 1 ч. 42 м.
Битрейт : 29 бит/сек
Count of elements : 884
Размер потока : 22,3 Кбайт (0%)
Заголовок : SDH
Язык : English
Default : Нет
Forced : Нет

Меню
00:00:00.000 : en:00:00:00.000
00:06:04.155 : en:00:06:04.155
00:09:32.697 : en:00:09:32.697
00:12:47.517 : en:00:12:47.517
00:16:47.715 : en:00:16:47.715
00:21:07.433 : en:00:21:07.433
00:26:56.448 : en:00:26:56.448
00:31:55.080 : en:00:31:55.080
00:38:06.284 : en:00:38:06.284
00:41:43.167 : en:00:41:43.167
00:46:33.040 : en:00:46:33.040
00:50:10.257 : en:00:50:10.257
00:53:04.390 : en:00:53:04.390
00:56:17.624 : en:00:56:17.624
00:59:26.480 : en:00:59:26.480
01:02:32.582 : en:01:02:32.582
01:06:37.035 : en:01:06:37.035
01:13:08.759 : en:01:13:08.759
01:18:45.888 : en:01:18:45.888
01:23:01.101 : en:01:23:01.101
01:30:17.996 : en:01:30:17.996
01:34:18.194 : en:01:34:18.194
01:37:45.193 : en:01:37:45.193
01:40:51.003 : en:01:40:51.003
скриншот   скриншот   скриншот   скриншот   скриншот  
pb.wtf



Скачать Кредо убийцы через торрент http://s019.radikal.ru/i629/1703/ca/550dfa73c044.jpg Скачать фильм Кредо убийцы через торрент бесплантно в хорошем качестве Описание: Благодаря революционным технологиям, позволяющим вызвать в памяти воспоминания прежних поколений, Каллум Линч проживает ... 9.9 10 21
Info! Золотая раздача, скачанное не засчитывается.
Торрент: Зарегистрирован [2017-03-14 10:32] · скачан: 516 раз
Статус: √ проверено
Размер: 5.5 GB
Как cкачать? Как скачать Кредо убийцы через торрент | qTorrent

28-11-2019 20:33  

Отключить всю рекламу на сайте

15-03-2017 01:07 Кредо убийцы Скачать торрент  

это какойто высер...я вообще не понял происходящего, бессмыслица какая то. еле досмотрелpb.wtf



15-03-2017 05:12 Кредо убийцы Скачать торрент  

все равно посмотреть хочется)pb.wtf



15-03-2017 18:20 Кредо убийцы Скачать торрент  

Axeli писал(а):

DavidLynch писал(а):

все равно посмотреть хочется)

Это не значит что это стоит смотреть.

pb.wtf



15-03-2017 18:21 Кредо убийцы Скачать торрент  

Axeli писал(а):

DavidLynch писал(а):

все равно посмотреть хочется)

Это не значит что это стоит смотреть.

Я думаю,это оценят и поймут любители Assassin's Creedpb.wtf



15-04-2017 19:42 Кредо убийцы Скачать торрент  

Фильм отличнейший,стоит посмотреть.Не для школоло,любителей жёсткого экшена.pb.wtf



    Дорогой пользователь! Огромная просьба, поблагодарите релизера, оцените раздачу и оставьте свои комментарий, если Вы скачали Кредо убийцы через торрент бесплатно! Внесите свою лепту в развитие PiratBit!
    Комментировать посты могут только пользователи прошедшие не сложную регистрацию
    Показать сообщения:    

    Кредо убийцы через торрент
    Скачать бесплатно Кредо убийцы
    Кредо убийцы скачать торрент
    Кредо убийцы смотреть онлайн
    Cкачать фильм Кредо убийцы бесплатно
    Кредо убийцы скачать торрент в хорошем качестве
    Кредо убийцы смотреть онлайн бесплатно в хорошем качестве


    Вы не можете начинать темы
    Вы не можете отвечать на сообщения
    Вы не можете редактировать свои сообщения
    Вы не можете удалять свои сообщения
    Вы не можете голосовать в опросах
    Вы не можете прикреплять файлы к сообщениям
    Вы можете скачивать файлы