2 сезон

iTunes

MVO

1

2 сезон

iTunes

iTunes

1 сезон

RePack

30

Новинка

ВАЖНО

ИГРА 18+

pack

RePack

MK11
pack

Легкие деньги

RePack

jed

RePack

fifa19

RePack

RDR2

RePack

NEED FOR SPEED™ PAYBACK

4 сезон

9 сезон

Бесстыжие 9 сезон

Все сериалы

все сериалы на PB.wtf

RePack

FAR CRY 5

Anonymous, доброй ночи, мы не успеваем собрать деньги на оплату серверов за декабрь и январь, помогите нам пожалуйста в это трудное время. В качестве благодарности мы отключим Вам всю рекламу на сайте (укажите свой ник в строку Ваше имя)!

×
  
Magnet ссылка

Комната служанки / The Maid's Room (Майкл Уолкер) [2013 г., триллер, WEB-DLRip, Профессиональный (многоголосый)] pb.wtf

Комната служанки через торрент pb.wtf

Размер: 1.46 GB | Добавлен: 3 года 10 мес. назад | Торрент скачан:175 раз
Скачать  

14-03-2017 11:39 Комната служанки Скачать торрент  

Комната служанки / The Maid's Room
Год выпуска: 2013
Страна: США
Жанр: триллер
Продолжительность: 01:42:48
Перевод: Профессиональный (многоголосый)
Субтитры: нет

Режиссер: Майкл Уолкер

rating

В ролях: Паула Гарсес, Аннабелла Шиорра, Билл Кэмп, Филип Эттинджер, Реми Обержене, Джон Бродский, Stefanie Brown, Херман Чавез, Бонни Деннисон, Хулио С. Пенья

Описание: История о юной девушке, которая появилась на свет и выросла в Колумбии. Она с компанией своих друзей решает отправиться в США на подработку. Приехав на место, героиня устраивается домработницей в зажиточную семью. Все шло прекрасным образом, пока не произошло кое-что неожиданное и страшное…

Качество: WEB-DLRip
Формат: AVI
Видео кодек: XviD
Аудио кодек: AC3
Видео: Хvid, 1766Kbps, 720x304,25.000 fps
Аудио#1: AC3, 256Kbps ,2 ch,44.1 KHz



General
Complete name : H:\релизы.торрентфайл\The Maid's Room (2013) WEB-DLRip.avi
Format : AVI
Format/Info : Audio Video Interleave
Format profile : OpenDML
File size : 1.46 GiB
Duration : 1h 42mn
Overall bit rate : 2 034 Kbps
Writing application : XviD4PSP 6.0 / 54.29.105

Video
ID : 0
Format : xvid
Codec ID : xvid
Duration : 1h 42mn
Bit rate : 1 766 Kbps
Width : 720 pixels
Height : 304 pixels
Display aspect ratio : 2.40:1
Frame rate : 25.000 fps
Bits/(Pixel*Frame) : 0.323
Stream size : 1.27 GiB (87%)

Audio
ID : 1
Format : AC-3
Format/Info : Audio Coding 3
Mode extension : CM (complete main)
Format settings, Endianness : Big
Codec ID : 2000
Duration : 1h 42mn
Bit rate mode : Constant
Bit rate : 256 Kbps
Channel(s) : 2 channels
Channel positions : Front: L R
Sampling rate : 44.1 KHz
Bit depth : 16 bits
Compression mode : Lossy
Stream size : 188 MiB (13%)
Alignment : Aligned on interleaves
Interleave, duration : 35 ms (0.87 video frame)

pb.wtf



Скачать Комната служанки через торрент http://i91.fastpic.ru/big/2017/0314/c5/4a694234b966d1064ee7aaa014a0ddc5.jpg Скачать фильм Комната служанки через торрент бесплантно в хорошем качестве Описание: История о юной девушке, которая появилась на свет и выросла в Колумбии. Она с компанией своих друзей решает отправиться в США на ... 7.7 10 6
Торрент: Зарегистрирован [2017-03-14 11:39] · скачан: 175 раз
Статус: √ проверено
Размер: 1.46 GB
Как cкачать? Как скачать Комната служанки через торрент | UTorrent

28-11-2019 20:33  

Отключить всю рекламу на сайте

    Дорогой пользователь! Огромная просьба, поблагодарите релизера, оцените раздачу и оставьте свои комментарий, если Вы скачали Комната служанки через торрент бесплатно! Внесите свою лепту в развитие PiratBit!
    Комментировать посты могут только пользователи прошедшие не сложную регистрацию
    Показать сообщения:    

    Комната служанки через торрент
    Скачать бесплатно Комната служанки
    Комната служанки скачать торрент
    Комната служанки смотреть онлайн
    Cкачать фильм Комната служанки бесплатно
    Комната служанки скачать торрент в хорошем качестве
    Комната служанки смотреть онлайн бесплатно в хорошем качестве


    Вы не можете начинать темы
    Вы не можете отвечать на сообщения
    Вы не можете редактировать свои сообщения
    Вы не можете удалять свои сообщения
    Вы не можете голосовать в опросах
    Вы не можете прикреплять файлы к сообщениям
    Вы можете скачивать файлы