Ссылка на приватное зеркало всего за 1$. Внимание количество ограничено!!!

iTunes

iTunes

iTunes

1

iTunes

iTunes

iTunes

iTunes

iTunes

30
pack

$ от Little Big

ВАЖНО

!!Акция!!

Alien_RageХит недели

RePack

Resident Evil 21

ИГРА 18+

pack

RePack

jed

!!Акция!!

Alien_Rage

RePack

fifa19

RePack

Assassins Creed: Odyssey

RePack

NEED FOR SPEED™ PAYBACK

4 сезон

9 сезон

Бесстыжие 9 сезон

Все сериалы

все сериалы на PB.wtf

RePack

FAR CRY 5
  

Преисподняя / Brimstone (Мартин Кулховен) [2016, триллер, детектив, вестерн, WEB-DL 1080p] Профессиональный многоголосый [Лицензия / iTunes] pb.wtf

Преисподняя через торрент pb.wtf

Размер: 5.95 GB | Добавлен: 3 года 3 мес. назад | Торрент скачан:352 раза
Скачать  

14-03-2017 18:12 Преисподняя Скачать торрент  

Преисподняя / Brimstone

Год выпуска: 2016
Страна: Нидерланды, Франция, Германия, Бельгия, Швеция, Великобритания
Жанр: триллер, детектив, вестерн
Продолжительность: 02:28:45
Перевод: Профессиональный многоголосый [Лицензия / iTunes]
Субтитры: русские (Full), английские (Forced), английские (Full)
Режиссер: Мартин Кулховен
В ролях:

Дакота Фаннинг (Liz), Кит Харингтон (Samuel), Гай Пирс (The Reverend), Кэрис ван Хаутен (Anna), Пол Андерсон (Frank), Эмилия Джонс (Joanna), Айви Джордж (Sam), Карла Юри (Elizabeth Brundy), Адриан Спаркс (Eli's Father), Вера Витали (Sally), Уильям Хьюстон (Eli), Джек Рот (Wolf)
Описание:
История о девушке по имени Лиз, которая пытается сбежать от своего темного прошлого и скрывается от преследования «дьявольского» проповедника.
Рейтинг:

MPAA: R - Лицам до 17 лет обязательно присутствие взрослого
Качество: WEB-DL 1080p
Формат: MKV
Видео: AVC, 1920x796 (2.40:1), 4461 kbps, 23,976 fps, 0,122 bpp
Аудио №1: русский / AC3 / 5.1 / 48 kHz / 384 kbps / |MVO iTunes|
Аудио №2: украинский / AC3 / 5.1 / 48 kHz / 384 kbps / |MVO iTunes|
Аудио №3: английский / AC3 / 5.1 / 48 kHz / 384 kbps /
Навигация по главам: есть
Сравнительные скриншоты с Русским WEB-DL 1080p
General
Unique ID : 217609917639290478319611146678604276005 (0xA3B62549D2F2332B8BB138A68A3A2125)
Complete name : E:\Brimstone.2016.WEB-DL.1080p.mkv
Format : Matroska
Format version : Version 2
File size : 5.95 GiB
Duration : 2 h 28 min
Overall bit rate : 5 727 kb/s
Movie name : Brimstone.2016.WEB-DL.1080p
Encoded date : UTC 2017-03-12 23:56:27
Writing application : mkvmerge v4.0.0 ('The Stars were mine') сборка от Jun 6 2010 16:18:42
Writing library : libebml v1.0.0 + libmatroska v1.0.0

Video
ID : 1
Format : AVC
Format/Info : Advanced Video Codec
Format profile : High@L4
Format settings, CABAC : Yes
Format settings, ReFrames : 5 frames
Codec ID : V_MPEG4/ISO/AVC
Duration : 2 h 28 min
Bit rate : 4 461 kb/s
Width : 1 920 pixels
Height : 796 pixels
Display aspect ratio : 2.40:1
Frame rate mode : Constant
Frame rate : 23.976 (24000/1001) FPS
Color space : YUV
Chroma subsampling : 4:2:0
Bit depth : 8 bits
Scan type : Progressive
Bits/(Pixel*Frame) : 0.122
Stream size : 4.64 GiB (78%)
Language : English
Default : No
Forced : No
Color range : Limited
Color primaries : BT.709
Transfer characteristics : BT.709
Matrix coefficients : BT.709

Audio #1
ID : 2
Format : AC-3
Format/Info : Audio Coding 3
Mode extension : CM (complete main)
Format settings, Endianness : Big
Codec ID : A_AC3
Duration : 2 h 28 min
Bit rate mode : Constant
Bit rate : 384 kb/s
Channel(s) : 6 channels
Channel positions : Front: L C R, Side: L R, LFE
Sampling rate : 48.0 kHz
Frame rate : 31.250 FPS (1536 spf)
Compression mode : Lossy
Stream size : 409 MiB (7%)
Title : MVO | iTunes
Language : Russian
Default : Yes
Forced : No

Audio #2
ID : 3
Format : AC-3
Format/Info : Audio Coding 3
Mode extension : CM (complete main)
Format settings, Endianness : Big
Codec ID : A_AC3
Duration : 2 h 28 min
Bit rate mode : Constant
Bit rate : 384 kb/s
Channel(s) : 6 channels
Channel positions : Front: L C R, Side: L R, LFE
Sampling rate : 48.0 kHz
Frame rate : 31.250 FPS (1536 spf)
Compression mode : Lossy
Stream size : 409 MiB (7%)
Title : MVO | iTunes
Language : Ukrainian
Default : No
Forced : No

Audio #3
ID : 4
Format : AC-3
Format/Info : Audio Coding 3
Mode extension : CM (complete main)
Format settings, Endianness : Big
Codec ID : A_AC3
Duration : 2 h 28 min
Bit rate mode : Constant
Bit rate : 384 kb/s
Channel(s) : 6 channels
Channel positions : Front: L C R, Side: L R, LFE
Sampling rate : 48.0 kHz
Frame rate : 31.250 FPS (1536 spf)
Compression mode : Lossy
Stream size : 409 MiB (7%)
Language : English
Default : No
Forced : No

Text #1
ID : 5
Format : UTF-8
Codec ID : S_TEXT/UTF8
Codec ID/Info : UTF-8 Plain Text
Title : Full
Language : Russian
Default : No
Forced : No

Text #2
ID : 6
Format : UTF-8
Codec ID : S_TEXT/UTF8
Codec ID/Info : UTF-8 Plain Text
Title : Forced
Language : English
Default : No
Forced : No

Text #3
ID : 7
Format : UTF-8
Codec ID : S_TEXT/UTF8
Codec ID/Info : UTF-8 Plain Text
Title : Full
Language : English
Default : No
Forced : No

Menu
00:00:00.000 : en:1
00:08:35.015 : en:2
00:15:53.286 : en:3
00:25:17.099 : en:4
00:33:20.248 : en:5
00:42:36.178 : en:6
00:52:21.429 : en:7
01:00:16.487 : en:8
01:09:03.722 : en:9
01:17:25.223 : en:10
01:24:49.041 : en:11
01:32:58.238 : en:12
01:41:42.387 : en:13
01:49:42.617 : en:14
01:56:21.807 : en:15
02:08:45.425 : en:16
pb.wtf



Скачать Преисподняя через торрент http://i5.imageban.ru/out/2017/03/14/c1673aa8a34b0cb161ed017308787585.jpg Скачать фильм Преисподняя через торрент бесплантно в хорошем качестве Описание: История о девушке по имени Лиз, которая пытается сбежать от своего темного прошлого и скрывается от преследования «дьявольского» ... 7.8 10 8
Info! Золотая раздача, скачанное не засчитывается.
Торрент: Зарегистрирован [2017-03-14 18:12] · скачан: 352 раз
Статус: √ проверено
Размер: 5.95 GB
Как cкачать? Как скачать Преисподняя через торрент | qTorrent

% Раздел Тема Автор DL S | L
Фильмы (Blu-ray, BD-Remux, HDDVD) [ 31.09 GB ] Преисподняя / Brimstone [2016 BD Remux 1080p] MVO [US Transfer] [] bober100 Скачать
1 | 0
Фильмы 2016 [DVDrip, WEB-DLRip, HDrip] (DUB, MVO) [ 2.91 GB ] Преисподняя / Brimstone [2016 BDRip-AVC] многоголосый [] от ExKinoRay Enigma2010 Скачать
2 | 0
Фильмы 2016 [DVDrip, WEB-DLRip, HDrip] (DUB, MVO) [ 1.46 GB ] Преисподняя / Brimstone [2016 BDRip] MVO [] bober100 Скачать
1 | 0
Фильмы 2016 [DVDrip, WEB-DLRip, HDrip] (DUB, MVO) [ 2.18 GB ] Преисподняя / Brimstone [2016 BDRip] многоголосый [] Twi7ter Скачать
1 | 0
Фильмы 2016 [DVDrip, WEB-DLRip, HDrip] (DUB, MVO) [ 1.46 GB ] Преисподняя / Brimstone [2016 BDRip] многоголосый [] Twi7ter Скачать
1 | 0
Фильмы 2016 [DVDrip, WEB-DLRip, HDrip] (DUB, MVO) [ 2.18 GB ] Преисподняя / Brimstone [2016 BDRip] MVO [] bober100 Скачать
1 | 0
Фильмы 2016 [DVDrip, WEB-DLRip, HDrip] (DUB, MVO) [ 2.75 GB ] Преисподняя / Brimstone [2016 BDRip-AVC] MVO [] bober100 Скачать
1 | 0

28-11-2019 20:33  

Отключить всю рекламу на сайте

    Дорогой пользователь! Огромная просьба, поблагодарите релизера, оцените раздачу и оставьте свои комментарий, если Вы скачали Преисподняя через торрент бесплатно! Внесите свою лепту в развитие PiratBit!
    Комментировать посты могут только пользователи прошедшие не сложную регистрацию
    Показать сообщения:    

    Преисподняя через торрент
    Скачать бесплатно Преисподняя
    Преисподняя скачать торрент
    Преисподняя смотреть онлайн
    Cкачать фильм Преисподняя бесплатно
    Преисподняя скачать торрент в хорошем качестве
    Преисподняя смотреть онлайн бесплатно в хорошем качестве


    Вы не можете начинать темы
    Вы не можете отвечать на сообщения
    Вы не можете редактировать свои сообщения
    Вы не можете удалять свои сообщения
    Вы не можете голосовать в опросах
    Вы не можете прикреплять файлы к сообщениям
    Вы можете скачивать файлы