новый адрес
Мега распродажа FORZA HORIZON 4 ULTIMATE+ВСЕ DLC+ОНЛАЙН всего за 499р. 349 руб. (супер цена). Внимание количество ограничено!!!

iTunes

1+1

iTunes

мы

iTunes

1

iTunes

Чернобыль

iTunes

Ральф против интернета

Лицензия

ПШазам

Лицензия

Оно 2

Лицензия

30
pack

ВАЖНО

!!Акция!!

Alien_RageХит недели

RePack

Resident Evil 21

ИГРА 18+

pack

RePack

Metro:Exodus

!!Акция!!

Alien_Rage

RePack

fifa19

RePack

Assassins Creed: Odyssey

RePack

NEED FOR SPEED™ PAYBACK

3 сезон

9 сезон

Бесстыжие 9 сезон

Все сериалы

все сериалы на PB.wtf

RePack

FAR CRY 5
Ребята, катастрофически не хватает 1900р. для оплаты серверов за Октябрь (всвязи с блокировками трафик упал в 3 раза), 1-2р., выручайте.
  

Екатерина Воронина (Исидор Анненский) [1957, СССР, драма, мелодрама, SATRip от AVP Studio] pb.wtf

Екатерина Воронина через торрент pb.wtf

Размер: 744 MB | Добавлен: 2 года 8 мес. назад | Торрент скачан:7 раз
Скачать  

15-03-2017 09:44 Екатерина Воронина Скачать торрент  

Екатерина Воронина
Страна: СССР
Производство: Киностудия им. М.Горького

Жанр: драма, мелодрама
Год выпуска: 1957
Продолжительность: 01:30:48

Перевод: Не требуется
Cубтитры: нет
Оригинальная аудиодорожка: русский

Режиссер: Исидор Анненский

В ролях:
Людмила Хитяева, Надир Малишевский, Сергей Бобров, Вера Пашенная, Ариадна Шенгелая, Вадим Медведев, Михаил Ульянов, Нонна Мордюкова, Александр Сашин-Никольский, Юрий Пузырёв, Маргарита Лифанова, Юрий Киреев, Екатерина Кудрявцева, Олег Туманов, Александр Пелевин, Иван Кузнецов...
Об актёрах подробней

Описание:
По одноименному роману Анатолия Рыбакова (1955).
Урожденная волжанка, воспитанница суровой и властной бабушки, Екатерина рано осталась без матери. Редкие встречи с отцом - старым, заслуженным капитаном - сформировали в ней твердый и бескомпромиссный характер. Наступила война. Не задумываясь, Екатерина пошла работать в госпиталь. Здесь к ней пришла первая любовь, которая принесла и первое разочарование. После войны, окончив институт, Екатерина - инженер, начальник участка речного порта. Непростые отношения сложились у нее с начальником пароходства. Когда его сняли с работы из-за справедливых нареканий, Екатерина поняла, что навсегда потеряла самого близкого человека.

Источник: DVB
Качество видео: SATRip
Формат видео: AVI

Видео: 640x480 (4:3), 25 fps, XviD ~ 1008 kbps avg, 0.131 bit/pixel
Аудио: 48 kHz, MP3 2.0, 128 kbps

Раздача от:
Общее
Полное имя : Ekaterina.Voronina.1957.SATRip-745_[New-team]_by_AVP_Studio.avi
Формат : AVI
Формат/Информация : Audio Video Interleave
Размер файла : 744 Мбайт
Продолжительность : 1 ч. 30 м.
Общий поток : 1146 Кбит/сек
Программа кодирования : VirtualDubMod 1.5.10.3 | www.virtualdub-fr.org || (build 2550/release)
Библиотека кодирования : VirtualDubMod build 2550/release

Видео
Идентификатор : 0
Формат : MPEG-4 Visual
Профиль формата : Advanced Simple@L5
Параметр BVOP формата : 1
Параметр QPel формата : Нет
Параметр GMC формата : Без точки перехода
Параметр матрицы формата : Выборочная
Идентификатор кодека : XVID
Идентификатор кодека/Подсказка : XviD
Продолжительность : 1 ч. 30 м.
Битрейт : 1008 Кбит/сек
Ширина : 640 пикселей
Высота : 480 пикселей
Соотношение сторон : 4:3
Частота кадров : 25,000 кадров/сек
Цветовое пространство : YUV
Субдискретизация насыщенности : 4:2:0
Битовая глубина : 8 бит
Тип развёртки : Прогрессивная
Метод сжатия : С потерями
Бит/(Пиксели*Кадры) : 0.131
Размер потока : 655 Мбайт (88%)
Библиотека кодирования : XviD 73

Аудио
Идентификатор : 1
Формат : MPEG Audio
Версия формата : Version 1
Профиль формата : Layer 3
Идентификатор кодека : 55
Идентификатор кодека/Подсказка : MP3
Продолжительность : 1 ч. 30 м.
Вид битрейта : Постоянный
Битрейт : 128 Кбит/сек
Каналы : 2 канала
Частота : 48,0 КГц
Метод сжатия : С потерями
Размер потока : 83,1 Мбайт (11%)
Выравнивание : Соединение по промежуткам
Продолжительность промежутка : 40 мс. (1,00 видеокадр)
Время предзагрузки промежутка : 504 мс.
Библиотека кодирования : LAME3.99r
Настройки программы : -m s -V 4 -q 2 -lowpass 17 -b 128
pb.wtf



Скачать Екатерина Воронина через торрент http://s015.radikal.ru/i333/1703/12/7d520b882aaa.png Скачать фильм Екатерина Воронина через торрент бесплантно в хорошем качестве Описание:По одноименному роману Анатолия Рыбакова (1955).Урожденная волжанка, воспитанница суровой и властной бабушки, Екатерина рано ... 10 10 1
Info! Золотая раздача, скачанное не засчитывается.
Торрент: Зарегистрирован [2017-03-15 09:44] · скачан: 7 раз
Статус: √ проверено
Размер: 744 MB
Как cкачать? Как скачать Екатерина Воронина через торрент | qTorrent

% Раздел Тема Автор DL S | L
Кино СССР [ 1.09 GB ] Екатерина Воронина [1957 СССР SATRip-AVC от AVP Studio] AVP Studio Скачать
1 | 0
Кино СССР [ 1.09 GB ] Екатерина Воронина [1957 СССР SATRip от AVP Studio] AVP Studio Скачать
1 | 0


>> Регистрируемся здесь <<






Отзывы и комментарии о схеме читаем и пишем здесь: ---> Отзывы и комментарии о схеме

Новые благодарочки в телеграм довольных пользователей:
скриншот   скриншот   скриншот   скриншот   скриншот
    Дорогой пользователь! Огромная просьба, поблагодарите релизера, оцените раздачу и оставьте свои комментарий, если Вы скачали Екатерина Воронина через торрент бесплатно! Внесите свою лепту в развитие PiratBit!
    Комментировать посты могут только пользователи прошедшие не сложную регистрацию
    Показать сообщения:    

    Екатерина Воронина через торрент
    Скачать бесплатно Екатерина Воронина
    Екатерина Воронина скачать торрент
    Екатерина Воронина смотреть онлайн
    Cкачать фильм Екатерина Воронина бесплатно
    Екатерина Воронина скачать торрент в хорошем качестве
    Екатерина Воронина смотреть онлайн бесплатно в хорошем качестве


    Вы не можете начинать темы
    Вы не можете отвечать на сообщения
    Вы не можете редактировать свои сообщения
    Вы не можете удалять свои сообщения
    Вы не можете голосовать в опросах
    Вы не можете прикреплять файлы к сообщениям
    Вы можете скачивать файлы