MEGA SALE -50% FORZA HORIZON 4 ULTIMATE+ВСЕ DLC+ОНЛАЙН всего за 599р. 299 руб. (супер цена). Внимание количество ограничено!!!

iTunes

1+1

iTunes

мы

iTunes

1

iTunes

Чернобыль

iTunes

Ральф против интернета

Лицензия

ПШазам

Лицензия

Игра престолов

Лицензия

30
pack

ВАЖНО

!!Акция!!

Alien_RageХит недели

RePack

Resident Evil 21

ИГРА 18+

pack

RePack

Metro:Exodus

!!Акция!!

Alien_Rage

RePack

fifa19

RePack

Assassins Creed: Odyssey

RePack

NEED FOR SPEED™ PAYBACK

3 сезон

9 сезон

Бесстыжие 9 сезон

Все сериалы

все сериалы на PB.wtf

RePack

FAR CRY 5
Ребята, катастрофически не хватает 7730р. для оплаты серверов за АВГУСТ (всвязи с блокировками трафик упал в 3 раза), 1-2р., выручайте.
  

Ниндзя-убийца / Ninja Assassin (Джеймс МакТиг) [2009, боевик, триллер, криминал, BDRip-AVC] 2xDUB (rus,ukr) pb.wtf

Ниндзя-убийца через торрент pb.wtf

Размер: 2.3 GB | Добавлен: 2 года 6 мес. назад | Торрент скачан:66 раз
Скачать  

15-03-2017 17:32 Ниндзя-убийца Скачать торрент  

Ниндзя-убийца / Ninja AssassinГод выпуска: 2009
Страна: США, Германия
Жанр: боевик, триллер, криминал
Продолжительность: 01:38:31
Перевод: Дубляж
Субтитры: русские, украинские, английские

Режиссер: Джеймс МакТиг

rating

В ролях:

Рэйн, Ли Джун, Джонатан Чан-Пинсли, Иль-Ён Ким, Юки Ивамото, Бен Майлз, Наоми Харрис, Санг Кенг, Лин Дэн Пэм, Ю Фэнг

Описание:

Рейзо — один из самых опасных убийц-ниндзя в мире. Еще ребенком его превратили в профессионального убийцу члены клана «Озуну» — секретной организации, чье существование до сих пор считалось выдумкой. Рейзо, преследуемый муками совести из-за беспощадного убийства своего друга кланом Озуну, сбегает от своих. Но тайные кланы не отпускают «своих» просто так…

Качество: BDRip-AVC
Формат: MKV
Видео кодек: H.264
Аудио кодек: AC3

Видео: 1024x432 (2,40:1), 23.976 fps, MPEG4 AVC (x264), High@L4.1 ~2767 Kbps avg, 0.261 bit/pixel
Аудио#1: Русский 48 kHz, AC3, 2 ch ~ 192 Kbps [Профессиональный (полное дублирование)]
Аудио#2: Украинские 48 kHz, AC3, 2 ch ~ 192 Kbps [Профессиональный (полное дублирование)]
Аудио#3: Английский 48 kHz, AC3, 2 ch ~ 192 Kbps [Оригинал]
скриншот   скриншот   скриншот   скриншот  

Общее
Уникальный идентификатор : 225791126993972467042626944514520178292 (0xA9DDCA0D4D289B898BE108E62222DE74)
Полное имя : F:\TREKER\ТЕМР\ninja_assassin_.mkv
Формат : Matroska
Версия формата : Version 2
Размер файла : 2,30 Гбайт
Продолжительность : 1 ч. 38 м.
Общий поток : 3340 Кбит/сек
Название фильма : ninja_assassin_
Дата кодирования : UTC 2017-03-14 23:56:57
Программа кодирования : mkvmerge v4.0.0 ('The Stars were mine') сборка от Jun 6 2010 16:18:42
Библиотека кодирования : libebml v1.0.0 + libmatroska v1.0.0
Обложка : Yes
Attachments : cover.jpg

Видео
Идентификатор : 1
Формат : AVC
Формат/Информация : Advanced Video Codec
Профиль формата : High@L4.1
Параметр CABAC формата : Да
Параметр ReFrames формата : 6 кадров
Идентификатор кодека : V_MPEG4/ISO/AVC
Продолжительность : 1 ч. 38 м.
Битрейт : 2767 Кбит/сек
Ширина : 1024 пикселя
Высота : 432 пикселя
Соотношение сторон : 2,40:1
Режим частоты кадров : Постоянный
Частота кадров : 23,976 (24000/1001) кадра/сек
Частота кадров в оригинале : 23,976 (23976/1000) кадра/сек
Цветовое пространство : YUV
Субдискретизация насыщенности : 4:2:0
Битовая глубина : 8 бит
Тип развёртки : Прогрессивная
Бит/(Пиксели*Кадры) : 0.261
Размер потока : 1,86 Гбайт (81%)
Заголовок : ninja_assassin_
Библиотека кодирования : x264 core 146 r2538 121396c
Настройки программы : cabac=1 / ref=6 / deblock=1:-1:-1 / analyse=0x3:0x133 / me=umh / subme=10 / psy=1 / psy_rd=1.00:0.15 / mixed_ref=1 / me_range=24 / chroma_me=1 / trellis=2 / 8x8dct=1 / cqm=0 / deadzone=21,11 / fast_pskip=0 / chroma_qp_offset=-3 / threads=12 / lookahead_threads=1 / sliced_threads=0 / nr=0 / decimate=1 / interlaced=0 / bluray_compat=0 / constrained_intra=0 / bframes=3 / b_pyramid=2 / b_adapt=2 / b_bias=0 / direct=3 / weightb=1 / open_gop=0 / weightp=2 / keyint=250 / keyint_min=23 / scenecut=40 / intra_refresh=0 / rc_lookahead=50 / rc=2pass / mbtree=1 / bitrate=2767 / ratetol=1.0 / qcomp=0.69 / qpmin=0 / qpmax=69 / qpstep=4 / cplxblur=20.0 / qblur=0.5 / ip_ratio=1.40 / aq=1:1.00
Язык : English
Default : Нет
Forced : Нет

Аудио #1
Идентификатор : 2
Формат : AC-3
Формат/Информация : Audio Coding 3
Расширение режима : CM (complete main)
Параметр Endianness формата : Big
Идентификатор кодека : A_AC3
Продолжительность : 1 ч. 38 м.
Вид битрейта : Постоянный
Битрейт : 192 Кбит/сек
Каналы : 6 каналов
Расположение каналов : Front: L C R, Side: L R, LFE
Частота : 48,0 КГц
Частота кадров : 31,250 кадров/сек (1536 spf)
Битовая глубина : 16 бит
Метод сжатия : С потерями
Размер потока : 136 Мбайт (6%)
Заголовок : Профессиональный (полное дублирование)
Язык : Russian
Default : Нет
Forced : Да

Аудио #2
Идентификатор : 3
Формат : AC-3
Формат/Информация : Audio Coding 3
Расширение режима : CM (complete main)
Параметр Endianness формата : Big
Идентификатор кодека : A_AC3
Продолжительность : 1 ч. 38 м.
Вид битрейта : Постоянный
Битрейт : 192 Кбит/сек
Каналы : 2 канала
Расположение каналов : Front: L R
Частота : 48,0 КГц
Частота кадров : 31,250 кадров/сек (1536 spf)
Битовая глубина : 16 бит
Метод сжатия : С потерями
Размер потока : 136 Мбайт (6%)
Заголовок : Профессиональный (полное дублирование)
Язык : Ukrainian
Default : Нет
Forced : Нет

Аудио #3
Идентификатор : 4
Формат : AC-3
Формат/Информация : Audio Coding 3
Расширение режима : CM (complete main)
Параметр Endianness формата : Big
Идентификатор кодека : A_AC3
Продолжительность : 1 ч. 38 м.
Вид битрейта : Постоянный
Битрейт : 192 Кбит/сек
Каналы : 2 канала
Расположение каналов : Front: L R
Частота : 48,0 КГц
Частота кадров : 31,250 кадров/сек (1536 spf)
Битовая глубина : 16 бит
Метод сжатия : С потерями
Размер потока : 136 Мбайт (6%)
Заголовок : Оригинал
Язык : English
Default : Нет
Forced : Нет

Текст #1
Идентификатор : 5
Формат : UTF-8
Идентификатор кодека : S_TEXT/UTF8
Идентификатор кодека/Информация : UTF-8 Plain Text
Язык : Russian
Default : Нет
Forced : Нет

Текст #2
Идентификатор : 6
Формат : UTF-8
Идентификатор кодека : S_TEXT/UTF8
Идентификатор кодека/Информация : UTF-8 Plain Text
Язык : Russian
Default : Нет
Forced : Нет

Текст #3
Идентификатор : 7
Формат : UTF-8
Идентификатор кодека : S_TEXT/UTF8
Идентификатор кодека/Информация : UTF-8 Plain Text
Язык : Ukrainian
Default : Нет
Forced : Нет

Текст #4
Идентификатор : 8
Формат : UTF-8
Идентификатор кодека : S_TEXT/UTF8
Идентификатор кодека/Информация : UTF-8 Plain Text
Язык : Ukrainian
Default : Нет
Forced : Нет

Текст #5
Идентификатор : 9
Формат : UTF-8
Идентификатор кодека : S_TEXT/UTF8
Идентификатор кодека/Информация : UTF-8 Plain Text
Язык : English
Default : Нет
Forced : Нет

Меню
00:00:00.000 : :Laughter Drowned in Blood
00:06:19.378 : :Stained Laundry
00:09:46.168 : :Way of the Ninja
00:13:52.748 : :Painful Path
00:17:29.965 : :Who Are You?
00:21:43.343 : :Survive the Night
00:24:27.090 : :Listening and Seeing
00:31:07.991 : :Kiriko's Choice
00:37:05.097 : :Lights Out
00:41:02.668 : :Throught the Heart
00:44:52.940 : :Watch Man
00:48:21.273 : :Fall From Grace
00:51:47.979 : :Into a Trap
00:54:21.216 : :Smell of a Setup
00:57:30.321 : :Ninja Swarm
01:00:43.931 : :Brothers in Battle
01:04:37.748 : :Car Trouble
01:07:00.433 : :Traffic Jam
01:10:07.036 : :Part of Each Other
01:14:07.442 : :Tonight We Avenge
01:18:59.651 : :Like Old Times
01:22:01.249 : :Not My Family
01:25:09.145 : :Final Cut
01:28:02.944 : :Where the Heart Is
01:30:47.942 : :End Credits

pb.wtf



Скачать Ниндзя-убийца через торрент http://s020.radikal.ru/i720/1703/95/ecba77cb529c.jpg Скачать фильм Ниндзя-убийца через торрент бесплантно в хорошем качестве Описание: Рейзо — один из самых опасных убийц-ниндзя в мире. Еще ребенком его превратили в профессионального убийцу члены клана «Озуну» — ... 8.9 10 8
Торрент: Зарегистрирован [2017-03-15 17:32] · скачан: 66 раз
Статус: √ проверено
Размер: 2.3 GB
Как cкачать? Как скачать Ниндзя-убийца через торрент | qTorrent

% Раздел Тема Автор DL S | L
Фильмы [HD 720p, 1080p] (Хороший звук DUB, MVO) [ 13 GB ] Ниндзя-убийца / Ninja Assassin [2009 BDRip 1080p by msltel] DUB 2 x AVO msltel Скачать
1 | 0
Фильмы [HD 720p, 1080p] (Хороший звук DUB, MVO) [ 4.67 GB ] Ниндзя-убийца / Ninja Assassin [2009 BDRip 720p by msltel] DUB 2 x AVO msltel Скачать
1 | 0
Фильмы 2009 [ 1.36 GB ] Ниндзя-убийца / Ninja Assassin [2009 HDRip лицензия] Sудья Скачать
1 | 0
Фильмы (BDRip, HDrip-AVC) (48-60 fps) [ 3.2 GB ] Ниндзя-убийца / Ninja Assassin [2009 Германия BDRip-AVC 60fps ] от R.G. HD-Films Tiberiumsun69 Скачать
1 | 0
Фильмы 2012 [ 2.18 GB ] Ниндзя-убийца / Ninja Assassin [2009 BDRip-AVC] DUB + Original + Subs potroks Скачать
1 | 0
Фильмы [HD 720p, 1080p] (Хороший звук DUB, MVO) [ 9.17 GB ] Ниндзя-убийца / Ninja Assassin [2009 BDRip 1080p DUB лицензия] Зайчина Скачать
1 | 0
Фильмы 2009 [ 744 MB ] Ниндзя-убийца / Ninja Assassin [2009 BDRip] sergey82 Скачать
1 | 0


>> Регистрируемся здесь <<






Отзывы и комментарии о схеме читаем и пишем здесь: ---> Отзывы и комментарии о схеме

Новые благодарочки в телеграм довольных пользователей:
скриншот   скриншот   скриншот   скриншот   скриншот

15-03-2017 20:41 Ниндзя-убийца Скачать торрент  

фильму уж 8 лет, может кто уже успел посмотреть, выскажетесь)pb.wtf



16-03-2017 08:14 Ниндзя-убийца Скачать торрент  

Не огоньpb.wtf



16-03-2017 13:45 Ниндзя-убийца Скачать торрент  

Для любителей жанра - самое оно.... !!!! Сцены поставлены вполне себе на уровне....Как-по мне ..... Рейтинг вполне справедливый.pb.wtf



17-03-2017 12:26 Ниндзя-убийца Скачать торрент  

По мне смотреть стоит) pb.wtf



    Дорогой пользователь! Огромная просьба, поблагодарите релизера, оцените раздачу и оставьте свои комментарий, если Вы скачали Ниндзя-убийца через торрент бесплатно! Внесите свою лепту в развитие PiratBit!
    Комментировать посты могут только пользователи прошедшие не сложную регистрацию
    Показать сообщения:    

    Ниндзя-убийца через торрент
    Скачать бесплатно Ниндзя-убийца
    Ниндзя-убийца скачать торрент
    Ниндзя-убийца смотреть онлайн
    Cкачать фильм Ниндзя-убийца бесплатно
    Ниндзя-убийца скачать торрент в хорошем качестве
    Ниндзя-убийца смотреть онлайн бесплатно в хорошем качестве


    Вы не можете начинать темы
    Вы не можете отвечать на сообщения
    Вы не можете редактировать свои сообщения
    Вы не можете удалять свои сообщения
    Вы не можете голосовать в опросах
    Вы не можете прикреплять файлы к сообщениям
    Вы можете скачивать файлы