2 сезон

iTunes

1 сезон

1

iTunes

iTunes

iTunes

1 сезон

RePack

30

ИГРА 18+

pack

ВАЖНО

!!Акция!!

Alien_RageХит недели

RePack

MK11
pack

Забери бонус

RePack

jed

!!Акция!!

Alien_Rage

RePack

fifa19

RePack

Assassins Creed: Odyssey

RePack

NEED FOR SPEED™ PAYBACK

4 сезон

9 сезон

Бесстыжие 9 сезон

Все сериалы

все сериалы на PB.wtf

RePack

FAR CRY 5
  

Она / Elle (Пол Верховен) [2016, триллер, драма, BDRip 1080p] DUB [iTunes] pb.wtf

Она через торрент pb.wtf

Размер: 10.4 GB | Добавлен: 3 года 7 мес. назад | Торрент скачан:77 раз
Скачать  

15-03-2017 18:25 Она Скачать торрент  

Она / ElleГод выпуска: 2016
Страна: Франция, Германия, Бельгия
Жанр: триллер, драма
Продолжительность: 02:10:44
Перевод: Дубляж - [iTunes]
Субтитры: отсутствуют

Режиссер: Пол Верховен

rating

В ролях:

Изабель Юппер, Лоран Лафитт, Анн Косиньи, Шарль Берлинг, Виржини Эфира, Жюдит Магр, Кристиан Беркель, Йонас Блоке, Алис Исааз, Вимала Понс

Описание:

Мишель, состоятельная парижанка, владелица крупной компании по разработке видеоигр, с мужем в разводе, у сына своя, взрослая, жизнь. А у Мишель необременительный роман с мужем подруги. Однажды в ее дом врывается мужчина в черном, жестоко избивает ее и насилует. Когда он исчезает, Мишель не заявляет в полицию. Страшная история пробуждает в ней детские психологические травмы и скрытые инстинкты, связанные с ее отцом, серийным убийцей. С этого момента она в каждом мужчине из своего окружения начинает видеть насильника. Она хочет найти его, но вовсе не для того, чтобы сдать полиции…


Качество: BDRip 1080p
Формат: MKV
Видео кодек: H.264
Аудио кодек: AC3

Видео: 1920x800p (2.40:1), 24 fps, AVC MPEG-4 (H.264), High@L4.1 ~9496 kbps, 0.258 bit/pixel
Аудио#1: Русский: 48 kHz, AC3 Dolby Digital, 6 ch, ~384 kbps[Профессиональный (полное дублирование)]
Аудио#2: Французский: 48 kHz, DTS, 6 ch, ~1509 kbps [Оригинал]
скриншот   скриншот   скриншот   скриншот  

General
Unique ID : 199498015642664581937041299188816657887 (0x9615EB935ACCC932B0D1A3BBCD11BDDF)
Complete name : Elle.2016.BDRip.1080p.ExKinoRay.mkv
Format : Matroska
Format version : Version 4 / Version 2
File size : 10.4 GiB
Duration : 2 h 10 min
Overall bit rate : 11.4 Mb/s
Encoded date : UTC 2017-03-13 22:40:08
Writing application : mkvmerge v8.3.0 ('Over the Horizon') 64bit
Writing library : libebml v1.3.1 + libmatroska v1.4.2

Video
ID : 1
Format : AVC
Format/Info : Advanced Video Codec
Format profile : High@L4.1
Format settings, CABAC : Yes
Format settings, ReFrames : 5 frames
Codec ID : V_MPEG4/ISO/AVC
Duration : 2 h 10 min
Bit rate : 9 496 kb/s
Width : 1 920 pixels
Height : 800 pixels
Display aspect ratio : 2.40:1
Frame rate mode : Constant
Frame rate : 24.000 FPS
Color space : YUV
Chroma subsampling : 4:2:0
Bit depth : 8 bits
Scan type : Progressive
Bits/(Pixel*Frame) : 0.258
Stream size : 8.67 GiB (83%)
Writing library : x264 core 148 r2699+6+41 29a38aa Yuuki [8-bit@4:2:0 X86_64][GCC 5.3.0]
Encoding settings : cabac=1 / ref=5 / deblock=1:-3:-3 / analyse=0x3:0x113 / me=umh / subme=11 / psy=1 / fade_compensate=0.00 / psy_rd=1.00:0.05 / mixed_ref=1 / me_range=32 / chroma_me=1 / trellis=2 / 8x8dct=1 / cqm=0 / deadzone=21,11 / fast_pskip=0 / chroma_qp_offset=-2 / threads=24 / lookahead_threads=4 / sliced_threads=0 / nr=0 / decimate=1 / interlaced=0 / bluray_compat=0 / constrained_intra=0 / fgo=0 / bframes=8 / b_pyramid=2 / b_adapt=2 / b_bias=0 / direct=3 / weightb=1 / open_gop=0 / weightp=2 / keyint=250 / keyint_min=24 / scenecut=40 / intra_refresh=0 / rc_lookahead=40 / rc=crf / mbtree=0 / crf=18.6000 / qcomp=0.60 / qpmin=0:0:0 / qpmax=69:69:69 / qpstep=4 / vbv_maxrate=50000 / vbv_bufsize=40000 / crf_max=0.0 / nal_hrd=none / filler=0 / ip_ratio=1.40 / pb_ratio=1.30 / aq=3:0.90
Language : English
Default : Yes
Forced : No

Audio #1
ID : 2
Format : AC-3
Format/Info : Audio Coding 3
Mode extension : CM (complete main)
Format settings, Endianness : Big
Codec ID : A_AC3
Duration : 2 h 10 min
Bit rate mode : Constant
Bit rate : 384 kb/s
Channel(s) : 6 channels
Channel positions : Front: L C R, Side: L R, LFE
Sampling rate : 48.0 kHz
Frame rate : 31.250 FPS (1536 spf)
Bit depth : 16 bits
Compression mode : Lossy
Stream size : 359 MiB (3%)
Title : iTunes
Language : Russian
Default : Yes
Forced : No

Audio #2
ID : 3
Format : DTS
Format/Info : Digital Theater Systems
Mode : 16
Format settings, Endianness : Big
Codec ID : A_DTS
Duration : 2 h 10 min
Bit rate mode : Constant
Bit rate : 1 509 kb/s
Channel(s) : 6 channels
Channel positions : Front: L C R, Side: L R, LFE
Sampling rate : 48.0 kHz
Frame rate : 93.750 FPS (512 spf)
Bit depth : 24 bits
Compression mode : Lossy
Stream size : 1.38 GiB (13%)
Title : Original
Language : English
Default : No
Forced : No

Menu
00:00:00.000 : en:Chapter 01
00:10:41.265 : en:Chapter 02
00:15:32.264 : en:Chapter 03
00:23:45.340 : en:Chapter 04
00:30:56.563 : en:Chapter 05
00:36:01.367 : en:Chapter 06
00:45:36.316 : en:Chapter 07
00:48:48.508 : en:Chapter 08
00:54:51.454 : en:Chapter 09
01:01:46.244 : en:Chapter 10
01:08:32.608 : en:Chapter 11
01:16:11.608 : en:Chapter 12
01:22:20.143 : en:Chapter 13
01:29:52.011 : en:Chapter 14
01:36:46.091 : en:Chapter 15
01:42:08.497 : en:Chapter 16

pb.wtf



Скачать Она через торрент http://s019.radikal.ru/i604/1703/80/f2dad4c2d540.jpg Скачать фильм Она через торрент бесплантно в хорошем качестве Описание: Мишель, состоятельная парижанка, владелица крупной компании по разработке видеоигр, с мужем в разводе, у сына своя, взрослая, ... 10 10 4
Info! Серебряная раздача, засчитывается только 50% скачанного.
Торрент: Зарегистрирован [2017-03-15 18:25] · скачан: 77 раз
Статус: √ проверено
Размер: 10.4 GB
Как cкачать? Как скачать Она через торрент | qTorrent

% Раздел Тема Автор DL S | L
Порно фильмы с русским переводом [ 1.3 GB ] My Mother Prefers Young Men / Ma mere prefere les jeunes / Моя Мать Предпочитает Молодых [2016 Feature WEB-DL] [ ] Pir@tya2010 Скачать
14 | 0
Гонзо [ 1.76 GB ] Она хороша немка / Elle est bonne la teutonne [2018 MILF Anal Mature WEB-DL] Скорпион1976 Скачать
3 | 0
Порно фильмы без сюжета [ 1.94 GB ] She's The Boss / Она Босс [2019 All Sex Female Domination Office Pantyhose & Stockings WEB-DL] Venom Скачать
1 | 0
Порно фильмы с русским переводом [ 1.21 GB ] 40-летняя Вдова / A 40 Year Old Widow [2018 Feature DVDRip ] Pir@tya2010 Скачать
2 | 0
Порно фильмы с русским переводом [ 1.57 GB ] Приемная Дочь: Семейные Тайны / Family Secrets: The Adopted Daughter [2018 Feature Foreign Oral All Sex European DVDRip] закадровый sheker187 Скачать
3 | 0
Космос [ 2.84 GB ] Путеводитель по Марсу / Mars: A Traveller's Guide [2017 Документальный познавательный космос HDTV 1080i ] Скорпион1976 Скачать
1 | 0
Фильмы 2001-2005 [ 2.38 GB ] Мою жену зовут Морис / Ma femme... s'appelle Maurice [2002 DVDRip-AVC ] от ExKinoRay dumbia Скачать
1 | 0

28-11-2019 20:33  

Отключить всю рекламу на сайте

    Дорогой пользователь! Огромная просьба, поблагодарите релизера, оцените раздачу и оставьте свои комментарий, если Вы скачали Она через торрент бесплатно! Внесите свою лепту в развитие PiratBit!
    Комментировать посты могут только пользователи прошедшие не сложную регистрацию
    Показать сообщения:    

    Она через торрент
    Скачать бесплатно Она
    Она скачать торрент
    Она смотреть онлайн
    Cкачать фильм Она бесплатно
    Она скачать торрент в хорошем качестве
    Она смотреть онлайн бесплатно в хорошем качестве


    Вы не можете начинать темы
    Вы не можете отвечать на сообщения
    Вы не можете редактировать свои сообщения
    Вы не можете удалять свои сообщения
    Вы не можете голосовать в опросах
    Вы не можете прикреплять файлы к сообщениям
    Вы можете скачивать файлы