Ссылка на приватное зеркало нашего сайта всего за 1$. Внимание количество ограничено!!!

2 сезон

iTunes

1 сезон

1

2 сезон

2 сезон

iTunes

1 сезон

RePack

30

Ultimate

ВАЖНО

ИГРА 18+

pack

RePack

MK11
pack

Забери бонус

RePack

jed

!!Акция!!

Alien_Rage

RePack

fifa19

RePack

Assassins Creed: Odyssey

RePack

NEED FOR SPEED™ PAYBACK

4 сезон

9 сезон

Бесстыжие 9 сезон

Все сериалы

все сериалы на PB.wtf

RePack

FAR CRY 5
  

Преследование / Chase / Сезон 1 / Серии 1-18 из 18 (Дермотт Даунс, Холли Дэйл) [2010-2011 г., боевик, триллер, драма, криминал, HDTVRip] MVO pb.wtf

Преследование через торрент pb.wtf

Размер: 8.79 GB | Добавлен: 3 года 8 мес. назад | Торрент скачан:31 раз
Скачать  

16-03-2017 08:03 Преследование Скачать торрент  

Преследование / Chase
Год выпуска: 2010-2011
Страна: США
Жанр: боевик, триллер, драма, криминал
Продолжительность: 18 x ~ 00:42:00
Перевод: Профессиональный многоголосный, закадровый [ТВ3]
Субтитры: отсутствуют

Режиссер: Дермотт Даунс, Холли Дэйл, Эгил Эгилссон



В ролях: Келли Гиддиш, Коул Хаузер, Джесси Меткалф, Амори Ноласко, Нормита Джовен, Даррел Чамли, Роуз Роллинз, Кеннит Эдвардс, Джуд Гави, Роза Николс

Описание: Главная героиня - отважная девушка, судебный пристав. По долгу службы ей приходится ловить опасных преступников и отправлять их за решетку. Она имеет дело с самыми ужасными отбросами общества. Воры и убийцы, серийные маньяки и гангстеры - вот ее клиенты. Но в погоне за злодеями у главной героини почти не остается времени на личную жизнь...

Качество: HDTVRip
Формат: AVI
Видео кодек: XviD
Аудио кодек: MP3
Видео: 720x400 (16:9), 23.976 fps ~ 1380 Kbps
Аудио#1: 48 KHz 2 ch ~ 128 Kb/s (русский)
Аудио#2: 48 KHz 2 ch ~ 128 Kb/s (английский)
скриншот   скриншот   скриншот   скриншот   скриншот   скриншот   скриншот  

Общее
Полное имя : Q:\TorF\Chase Season 1\Chase.s01e01.HDTVRip.avi
Формат : AVI
Формат/Информация : Audio Video Interleave
Размер файла : 500 Мбайт
Продолжительность : 42 м.
Общий поток : 1635 Кбит/сек
Программа кодирования : VirtualDubMod 1.5.10.2 (build 2540/release)
Библиотека кодирования : VirtualDubMod build 2540/release

Видео
Идентификатор : 0
Формат : MPEG-4 Visual
Профиль формата : Advanced Simple@L5
Параметр BVOP формата : 2
Параметр QPel формата : Нет
Параметр GMC формата : Без точки перехода
Параметр матрицы формата : Default (MPEG)
Идентификатор кодека : XVID
Идентификатор кодека/Подсказка : XviD
Продолжительность : 42 м.
Битрейт : 1365 Кбит/сек
Ширина : 720 пикселей
Высота : 400 пикселей
Соотношение сторон : 16:9
Частота кадров : 23,976 кадра/сек
Цветовое пространство : YUV
Субдискретизация насыщенности : 4:2:0
Битовая глубина : 8 бит
Тип развёртки : Прогрессивная
Метод сжатия : С потерями
Бит/(Пиксели*Кадры) : 0.198
Размер потока : 417 Мбайт (83%)
Библиотека кодирования : XviD 64

Аудио #1
Идентификатор : 1
Формат : MPEG Audio
Версия формата : Version 1
Профиль формата : Layer 3
Режим : Joint stereo
Расширение режима : MS Stereo
Идентификатор кодека : 55
Идентификатор кодека/Подсказка : MP3
Продолжительность : 42 м.
Вид битрейта : Постоянный
Битрейт : 128 Кбит/сек
Каналы : 2 канала
Частота : 48,0 КГц
Метод сжатия : С потерями
Размер потока : 39,1 Мбайт (8%)
Выравнивание : Соединение по промежуткам
Продолжительность промежутка : 42 мс. (1,00 видеокадр)
Время предзагрузки промежутка : 504 мс.

Аудио #2
Идентификатор : 2
Формат : MPEG Audio
Версия формата : Version 1
Профиль формата : Layer 3
Режим : Joint stereo
Идентификатор кодека : 55
Идентификатор кодека/Подсказка : MP3
Продолжительность : 42 м.
Вид битрейта : Постоянный
Битрейт : 128 Кбит/сек
Каналы : 2 канала
Частота : 48,0 КГц
Метод сжатия : С потерями
Размер потока : 39,1 Мбайт (8%)
Выравнивание : Соединение по промежуткам
Продолжительность промежутка : 42 мс. (1,00 видеокадр)
Время предзагрузки промежутка : 504 мс.

pb.wtf



Скачать Преследование через торрент http://pic.kartinco.top/images/11/rsasw.jpg Скачать фильм Преследование через торрент бесплантно в хорошем качестве Описание: Главная героиня - отважная девушка, судебный пристав. По долгу службы ей приходится ловить опасных преступников и отправлять их ... 7.3 10 3
Info! Золотая раздача, скачанное не засчитывается.
Торрент: Зарегистрирован [2017-03-16 08:03] · скачан: 31 раз
Статус: √ проверено
Размер: 8.79 GB
Как cкачать? Как скачать Преследование через торрент | qTorrent

28-11-2019 20:33  

Отключить всю рекламу на сайте

    Дорогой пользователь! Огромная просьба, поблагодарите релизера, оцените раздачу и оставьте свои комментарий, если Вы скачали Преследование через торрент бесплатно! Внесите свою лепту в развитие PiratBit!
    Комментировать посты могут только пользователи прошедшие не сложную регистрацию
    Показать сообщения:    

    Преследование через торрент
    Скачать бесплатно Преследование
    Преследование скачать торрент
    Преследование смотреть онлайн
    Cкачать фильм Преследование бесплатно
    Преследование скачать торрент в хорошем качестве
    Преследование смотреть онлайн бесплатно в хорошем качестве


    Вы не можете начинать темы
    Вы не можете отвечать на сообщения
    Вы не можете редактировать свои сообщения
    Вы не можете удалять свои сообщения
    Вы не можете голосовать в опросах
    Вы не можете прикреплять файлы к сообщениям
    Вы можете скачивать файлы